Начать новую тему Ответить на тему
Статистика раздачи
Размер: 265.31 МБ | Добавлен: 26 мар 2019, 19:56 | Скачали: 0
Сидеров: 4  [0 байт/сек]    Личеров: 1  [0 байт/сек]
Пред. тема | След. тема 

Автор
Сообщение

СообщениеДобавлено: 26 мар 2019, 19:56 

Ответить с цитатой 

America / A Horse With No Name
Жанр: Rock, Southern Rock
Носитель: CD
Страна-производитель диска (релиза): Germany
Год издания: 1998
Издатель (лейбл): Falcon Neue Medien, Euro Sound
Номер по каталогу: 3325
Страна исполнителя (группы): USA
Аудиокодек: FLAC (*.flac)
Тип рипа: image+.cue
Битрейт аудио: lossless
Продолжительность: 00:44:28
Источник (релизер): alexpika
Наличие сканов в содержимом раздачи: да
Треклист:
01. A Horse With No Name 4:08
02. Daisy Jane 3:07
03. Don't Cross The Border 2:31
04. I Need You 3:06
05. Lonely People 2:28
06. Only In Your Heart 3:11
07. Right Before Your Eyes 3:47
08. Sandman 4:08
09. Sister Golden Hair 3:19
10. The Border 4:00
11. Tin Man 3:27
12. Ventura Highway 3:22
13. You Can Do Magic 3:54
Код:
Exact Audio Copy V1.0 beta 3 from 29. August 2011
EAC extraction logfile from 2. March 2017, 8:04
America / A Horse With No Name
Used drive  : TSSTcorpCDDVDW SH-216DB   Adapter: 0  ID: 0
Read mode               : Secure
Utilize accurate stream : Yes
Defeat audio cache      : Yes
Make use of C2 pointers : No
Read offset correction                      : 6
Overread into Lead-In and Lead-Out          : No
Fill up missing offset samples with silence : Yes
Delete leading and trailing silent blocks   : No
Null samples used in CRC calculations       : Yes
Used interface                              : Native Win32 interface for Win NT & 2000
Used output format              : User Defined Encoder
Selected bitrate                : 1024 kBit/s
Quality                         : High
Add ID3 tag                     : No
Command line compressor         : C:\Program Files (x86)\Exact Audio Copy\Flac\flac.exe
Additional command line options : -V -8 -T "Date=%year%" -T "Genre=%genre%" %source%
TOC of the extracted CD
     Track |   Start  |  Length  | Start sector | End sector
    ---------------------------------------------------------
        1  |  0:00.30 |  4:11.16 |        30    |    18870
        2  |  4:11.46 |  3:10.27 |     18871    |    33147
        3  |  7:21.73 |  2:34.01 |     33148    |    44698
        4  |  9:55.74 |  3:05.72 |     44699    |    58645
        5  | 13:01.71 |  2:32.03 |     58646    |    70048
        6  | 15:33.74 |  3:14.02 |     70049    |    84600
        7  | 18:48.01 |  3:49.73 |     84601    |   101848
        8  | 22:37.74 |  4:11.03 |    101849    |   120676
        9  | 26:49.02 |  3:22.55 |    120677    |   135881
       10  | 30:11.57 |  4:02.46 |    135882    |   154077
       11  | 34:14.28 |  3:31.04 |    154078    |   169906
       12  | 37:45.32 |  3:23.43 |    169907    |   185174
       13  | 41:09.00 |  3:59.37 |    185175    |   203136
Range status and errors
Selected range
     Filename L:\Private\My Audio Ripps\ CD - RIPS\America - A Horse With No Name\America - A Horse With No Name.wav
     Peak level 98.0 %
     Extraction speed 2.3 X
     Range quality 99.9 %
     Test CRC 029C4A18
     Copy CRC 029C4A18
     Copy OK
No errors occurred
AccurateRip summary
Track  1  accurately ripped (confidence 11)  [5BD96550]  (AR v2)
Track  2  accurately ripped (confidence 11)  [57AE6866]  (AR v2)
Track  3  accurately ripped (confidence 11)  [B5590E82]  (AR v2)
Track  4  accurately ripped (confidence 11)  [7F11CE02]  (AR v2)
Track  5  accurately ripped (confidence 11)  [F09DD086]  (AR v2)
Track  6  accurately ripped (confidence 11)  [7211AD8B]  (AR v2)
Track  7  accurately ripped (confidence 11)  [FD2C69E6]  (AR v2)
Track  8  accurately ripped (confidence 11)  [45937AB9]  (AR v2)
Track  9  accurately ripped (confidence 11)  [7D42B515]  (AR v2)
Track 10  accurately ripped (confidence 11)  [5472D869]  (AR v2)
Track 11  accurately ripped (confidence 11)  [C890E96E]  (AR v2)
Track 12  accurately ripped (confidence 11)  [F34C81F1]  (AR v2)
Track 13  accurately ripped (confidence 11)  [A68C7C2C]  (AR v2)
All tracks accurately ripped
End of status report
==== Log checksum 0D196B30C4D11DF6691C1F86F4D1847A75B8C024EB8C25EC9BA7FB1A5E12C196 ====
Код:
REM GENRE "Slow Rock"
REM DATE 1998
REM DISCID A80A940D
REM COMMENT "ExactAudioCopy v1.0b3"
PERFORMER "America"
TITLE "A Horse With No Name"
FILE "America - A Horse With No Name.flac" WAVE
  TRACK 01 AUDIO
    TITLE "A Horse With No Name"
    PERFORMER "America"
    INDEX 00 00:00:00
    INDEX 01 00:00:30
  TRACK 02 AUDIO
    TITLE "Daisy Jane"
    PERFORMER "America"
    INDEX 01 04:11:46
  TRACK 03 AUDIO
    TITLE "Don't Cross The River"
    PERFORMER "America"
    INDEX 00 07:21:72
    INDEX 01 07:21:73
  TRACK 04 AUDIO
    TITLE "I Need You"
    PERFORMER "America"
    INDEX 00 09:55:73
    INDEX 01 09:55:74
  TRACK 05 AUDIO
    TITLE "Lonely People"
    PERFORMER "America"
    INDEX 00 13:01:70
    INDEX 01 13:01:71
  TRACK 06 AUDIO
    TITLE "Only In Your Heart"
    PERFORMER "America"
    INDEX 00 15:33:73
    INDEX 01 15:33:74
  TRACK 07 AUDIO
    TITLE "Right Before Your Eyes"
    PERFORMER "America"
    INDEX 00 18:48:00
    INDEX 01 18:48:01
  TRACK 08 AUDIO
    TITLE "Sandman"
    PERFORMER "America"
    INDEX 00 22:37:73
    INDEX 01 22:37:74
  TRACK 09 AUDIO
    TITLE "Sister Golden Hair"
    PERFORMER "America"
    INDEX 00 26:49:01
    INDEX 01 26:49:02
  TRACK 10 AUDIO
    TITLE "The Border"
    PERFORMER "America"
    INDEX 01 30:11:57
  TRACK 11 AUDIO
    TITLE "Tin Man"
    PERFORMER "America"
    INDEX 00 34:14:27
    INDEX 01 34:14:28
  TRACK 12 AUDIO
    TITLE "Ventura Highway"
    PERFORMER "America"
    INDEX 00 37:45:31
    INDEX 01 37:45:32
  TRACK 13 AUDIO
    TITLE "You Can Do Magic"
    PERFORMER "America"
    INDEX 00 41:08:74
    INDEX 01 41:09:00
Код:
foobar2000 1.1.10 / Dynamic Range Meter 1.1.1
log date: 2017-03-04 10:16:29
--------------------------------------------------------------------------------
Analyzed: America / A Horse With No Name
--------------------------------------------------------------------------------
DR         Peak         RMS     Duration Track
--------------------------------------------------------------------------------
DR11      -2.52 dB   -16.05 dB      4:11 ?-A Horse With No Name
DR12      -2.60 dB   -19.43 dB      3:10 ?-Daisy Jane
DR12      -3.62 dB   -18.50 dB      2:34 ?-Don't Cross The River
DR12      -2.80 dB   -17.41 dB      3:06 ?-I Need You
DR12      -2.35 dB   -17.33 dB      2:32 ?-Lonely People
DR12      -1.05 dB   -15.86 dB      3:14 ?-Only In Your Heart
DR11      -0.18 dB   -12.62 dB      3:50 ?-Right Before Your Eyes
DR15      -1.44 dB   -18.47 dB      4:11 ?-Sandman
DR12      -0.78 dB   -16.83 dB      3:23 ?-Sister Golden Hair
DR8       -0.18 dB    -9.40 dB      4:03 ?-The Border
DR13      -3.18 dB   -18.46 dB      3:31 ?-Tin Man
DR11      -2.44 dB   -16.06 dB      3:24 ?-Ventura Highway
DR10      -0.18 dB   -11.57 dB      3:59 ?-You Can Do Magic
--------------------------------------------------------------------------------
Number of tracks:  13
Official DR value: DR12
Samplerate:        44100 Hz
Channels:          2
Bits per sample:   16
Bitrate:           819 kbps
Codec:             FLAC
================================================================================
Правила, инструкции, FAQ!!!
Торрент  Добавлен [26 мар 2019, 19:56] Скачать торрент Магнет ссылка
Скачать торрент
[ Размер 11.2 КБ / Просмотров 38 ]

Статус
Проверен 
 
Размер  265.31 МБ
Приватный: Нет (DHT включён)
.torrent скачан  0
 


     Отправить личное сообщение
   
Страница 1 из 1
Показать сообщения за:  Поле сортировки  
Начать новую тему Ответить на тему


Сейчас этот форум просматривают: нет зарегистрированных пользователей и гости: 0


Вы не можете начинать темы
Вы не можете отвечать на сообщения
Вы не можете редактировать свои сообщения
Вы не можете удалять свои сообщения
Вы не можете добавлять вложения

Перейти:  
cron