Начать новую тему Ответить на тему
Статистика раздачи
Размер: 511.16 МБ | Добавлен: 26 мар 2019, 20:26 | Скачали: 0
Сидеров: 0  [0 байт/сек]    Личеров: 0  [0 байт/сек]
Пред. тема | След. тема 

Автор
Сообщение

СообщениеДобавлено: 26 мар 2019, 20:26 

Ответить с цитатой 

Reamonn - Raise Your Hands
Жанр: Rock, Soft Rock
Год выпуска диска: 2004
Производитель диска: Германия
Аудио кодек: FLAC
Тип рипа: tracks + .cue
Битрейт аудио: lossless
Продолжительность: 1:10:50
Треклист:
01 - Stripped (3:18)
02 - Swim (5:15)
03 - Star (4:51)
04 - Strong (4:58)
05 - Supergirl (4:10)
06 - Place Of No Return (In Zaire) (4:38)
07 - Promised Land (5:30)
08 - Pain (5:21)
09 - Life Is A Dream (6:58)
10 - Josephine (4:21)
11 - Beautiful Sky [Intro] (3:07)
12 - Beautiful Sky (4:27)
13 - Alright (9:53)
14 - Sunshine Baby [feat. Maya](4:02)
Запись концертного выступления группы, изданная 10 сентября 2004 года лейблом Virgin Music Germany.
Скачано с закрытого музыкального трекера. Размещается на Torrents.ru с личного согласия автора раздачи.
Код:
EAC extraction logfile from 15. June 2008, 14:08 for CD
Reamonn / Raise Your Hands
Used drive  : PLEXTOR CD-R   PX-W4824A   Adapter: 5  ID: 0
Read mode   : Secure with NO C2, accurate stream, disable cache
Read offset correction : 98
Overread into Lead-In and Lead-Out : No
Used output format : D:\Program Files\Exact Audio Copy\Flac\flac.exe   (User Defined Encoder)
                     320 kBit/s
                     Additional command line options : -8 -V -T "ARTIST=%a" -T "TITLE=%t" -T "ALBUM=%g" -T "DATE=%y" -T "TRACKNUMBER=%n" -T "GENRE=%m" -T "COMMENT=EAC 0.95 beta 3, FLAC -8" %s
Other options      :
    Fill up missing offset samples with silence : Yes
    Delete leading and trailing silent blocks : No
    Installed external ASPI interface
Track  1
     Filename F:\Reamonn - Raise Your Hands (2004) [FLAC]\01 - Stripped.wav
     Pre-gap length  0:00:02.00
     Peak level 100.0 %
     Track quality 99.9 %
     Test CRC 30C2D8CD
     Copy CRC 30C2D8CD
     Copy OK
Track  2
     Filename F:\Reamonn - Raise Your Hands (2004) [FLAC]\02 - Swim.wav
     Peak level 99.1 %
     Track quality 100.0 %
     Test CRC 82AD4B38
     Copy CRC 82AD4B38
     Copy OK
Track  3
     Filename F:\Reamonn - Raise Your Hands (2004) [FLAC]\03 - Star.wav
     Peak level 100.0 %
     Track quality 100.0 %
     Test CRC 31E34F0D
     Copy CRC 31E34F0D
     Copy OK
Track  4
     Filename F:\Reamonn - Raise Your Hands (2004) [FLAC]\04 - Strong.wav
     Peak level 100.0 %
     Track quality 100.0 %
     Test CRC 17F2FF22
     Copy CRC 17F2FF22
     Copy OK
Track  5
     Filename F:\Reamonn - Raise Your Hands (2004) [FLAC]\05 - Supergirl.wav
     Peak level 100.0 %
     Track quality 100.0 %
     Test CRC D0659AE7
     Copy CRC D0659AE7
     Copy OK
Track  6
     Filename F:\Reamonn - Raise Your Hands (2004) [FLAC]\06 - Place Of No Return (In Zaire).wav
     Peak level 99.8 %
     Track quality 100.0 %
     Test CRC B6600E71
     Copy CRC B6600E71
     Copy OK
Track  7
     Filename F:\Reamonn - Raise Your Hands (2004) [FLAC]\07 - Promised Land.wav
     Peak level 100.0 %
     Track quality 100.0 %
     Test CRC 2472D6BC
     Copy CRC 2472D6BC
     Copy OK
Track  8
     Filename F:\Reamonn - Raise Your Hands (2004) [FLAC]\08 - Pain.wav
     Peak level 100.0 %
     Track quality 100.0 %
     Test CRC ACA71658
     Copy CRC ACA71658
     Copy OK
Track  9
     Filename F:\Reamonn - Raise Your Hands (2004) [FLAC]\09 - Life Is A Dream.wav
     Peak level 100.0 %
     Track quality 100.0 %
     Test CRC 01625B18
     Copy CRC 01625B18
     Copy OK
Track 10
     Filename F:\Reamonn - Raise Your Hands (2004) [FLAC]\10 - Josephine.wav
     Peak level 98.4 %
     Track quality 100.0 %
     Test CRC 5A8A39D5
     Copy CRC 5A8A39D5
     Copy OK
Track 11
     Filename F:\Reamonn - Raise Your Hands (2004) [FLAC]\11 - Beautiful Sky Intro.wav
     Peak level 61.4 %
     Track quality 99.9 %
     Test CRC A797D474
     Copy CRC A797D474
     Copy OK
Track 12
     Filename F:\Reamonn - Raise Your Hands (2004) [FLAC]\12 - Beautiful Sky.wav
     Peak level 100.0 %
     Track quality 100.0 %
     Test CRC 0CEF1F2B
     Copy CRC 0CEF1F2B
     Copy OK
Track 13
     Filename F:\Reamonn - Raise Your Hands (2004) [FLAC]\13 - Alright.wav
     Peak level 99.9 %
     Track quality 99.9 %
     Test CRC 06C637BC
     Copy CRC 06C637BC
     Copy OK
Track 14
     Filename F:\Reamonn - Raise Your Hands (2004) [FLAC]\14 - Sunshine Baby feat. Maya.wav
     Pre-gap length  0:00:02.00
     Peak level 97.3 %
     Track quality 99.9 %
     Test CRC 60F26442
     Copy CRC 60F26442
     Copy OK
No errors occured
End of status report
ПРИЯТНОГО ПРОСЛУШИВАНИЯ!
Правила, инструкции, FAQ!!!
Торрент  Добавлен [26 мар 2019, 20:26] Скачать торрент Магнет ссылка
Скачать торрент
[ Размер 21.85 КБ / Просмотров 4 ]

Статус
Проверен 
 
Размер  511.16 МБ
Приватный: Нет (DHT включён)
.torrent скачан  0
 


     Отправить личное сообщение
   
Страница 1 из 1
Показать сообщения за:  Поле сортировки  
Начать новую тему Ответить на тему


Сейчас этот форум просматривают: нет зарегистрированных пользователей и гости: 0


Вы не можете начинать темы
Вы не можете отвечать на сообщения
Вы не можете редактировать свои сообщения
Вы не можете удалять свои сообщения
Вы не можете добавлять вложения

Перейти:  
cron