Начать новую тему Ответить на тему
Статистика раздачи
Размер: 536.97 МБ | Добавлен: 26 мар 2019, 19:16 | Скачали: 0
Сидеров: 0  [0 байт/сек]    Личеров: 0  [0 байт/сек]
Пред. тема | След. тема 

Автор
Сообщение

СообщениеДобавлено: 26 мар 2019, 19:16 

Ответить с цитатой 

.
ULF LUNDELL

Den Vassa Eggen
(2 × CD, Album, Repress).
Жанр: Rock, Soft Rock, Pop Rock
Носитель
: CD
Страна-производитель диска (релиза): Sweden
Год издания: 1986
Издатель (лейбл): Pandion
Номер по каталогу: CDP 7 46308 8
Страна исполнителя (группы): Sweden
Аудиокодек: FLAC (*.flac)
Тип рипа: image+.cue
Битрейт аудио: lossless
Продолжительность: 00:44:22 + 00:44:34
Источник (релизер): stas64
Наличие сканов в содержимом раздачи: да - 600 dpi
Треклист:
01. Slapp Mej Fri.
02
. Chans.
03. Den Vassa Eggen.
04. Kyssar Och Smek.
05. Nytt Liv.
06. Aktenskap.
07. Inte Ett Ont Ord.
08. En Fri Man I Stan.
Код:
Exact Audio Copy V1.1 from 23. June 2015
Отчёт EAC об извлечении, выполненном 12. июня 2016, 21:32
Ulf Lundell / Den Vassa Eggen (Disc 1)
Дисковод: PLEXTOR DVDR   PX-712A   Adapter: 8  ID: 0
Режим чтения                 : Достоверность
Использование точного потока : Да
Отключение кэша аудио        : Да
Использование указателей C2  : Нет
Коррекция смещения при чтении                     : 30
Способность читать области Lead-in и Lead-out     : Нет
Заполнение пропущенных сэмплов тишиной            : Да
Удаление блоков с тишиной в начале и конце        : Нет
При вычислениях CRC использовались нулевые сэмплы : Да
Интерфейс                                         : Установленный внешний ASPI-интерфейс
Выходной формат          : Пользовательский кодировщик
Выбранный битрейт        : 128 kBit/s
Качество                 : Высокий
Добавление ID3-тега      : Нет
Утилита сжатия           : C:\Program Files\Exact Audio Copy\Flac\flac.exe
Дополнительные параметры : -V -8 -T "Genre=%genre%" -T "Artist=%artist%" -T "Title=%title%" -T "Album=%albumtitle%" -T "Date=%year%" -T "Tracknumber=%tracknr%" -T "Comment=%comment%" %source%
TOC извлечённого CD
     Трек |   Старт  | Длительность | Начальный сектор | Конечный сектор
    ---------------------------------------------------------------------
       1  |  0:00.33 |    2:20.27   |          33      |      10559
       2  |  2:20.60 |    5:44.70   |       10560      |      36429
       3  |  8:05.55 |    5:52.38   |       36430      |      62867
       4  | 13:58.18 |    6:29.55   |       62868      |      92097
       5  | 20:27.73 |    5:27.00   |       92098      |     116622
       6  | 25:54.73 |    5:04.65   |      116623      |     139487
       7  | 30:59.63 |    5:16.45   |      139488      |     163232
       8  | 36:16.33 |    8:06.72   |      163233      |     199754
Характеристики диапазона извлечения и сообщения об ошибках
Выбранный диапазон
     Имя файла I:\MOI_RAZDACI\Ulf Lundell 1986\Ulf.Lundell_Den.Vassa.Eggen_1986\CD-1\Ulf Lundell - Den Vassa Eggen (Disc 1).wav
     Пиковый уровень 90.3 %
     Скорость извлечения 12.1 X
     Качество диапазона 100.0 %
     CRC теста 82BC7ECF
     CRC копии 82BC7ECF
     Копирование... OK
Ошибок не произошло
AccurateRip: сводка
Трек  1  отсутствует в базе данных
Трек  2  отсутствует в базе данных
Трек  3  отсутствует в базе данных
Трек  4  отсутствует в базе данных
Трек  5  отсутствует в базе данных
Трек  6  отсутствует в базе данных
Трек  7  отсутствует в базе данных
Трек  8  отсутствует в базе данных
Ни одного трека нет в базе AccurateRip
Конец отчёта
---- CUETools DB Plugin V2.1.6
[CTDB TOCID: EJaWBY6QRewUTP.0NLkWm0ISz7Q-] found
Submit result: EJaWBY6QRewUTP.0NLkWm0ISz7Q- has been confirmed
Track | CTDB Status
  1   | (2/2) Accurately ripped
  2   | (2/2) Accurately ripped
  3   | (2/2) Accurately ripped
  4   | (2/2) Accurately ripped
  5   | (2/2) Accurately ripped
  6   | (2/2) Accurately ripped
  7   | (2/2) Accurately ripped
  8   | (2/2) Accurately ripped
==== Контрольная сумма отчёта 2396B52CD0F3CCBB2C7BDDA8C85961196772B3283870DBE8E4EF081D61287DCD ====
Код:
REM GENRE Rock
REM DATE 1986
REM DISCID 690A6708
REM COMMENT "ExactAudioCopy v1.1"
CATALOG 0000000000000
PERFORMER "Ulf Lundell"
TITLE "Den Vassa Eggen (Disc 1)"
FILE "Ulf Lundell - Den Vassa Eggen (Disc 1).flac" WAVE
  TRACK 01 AUDIO
    TITLE "Slapp Mej Fri"
    PERFORMER "Ulf Lundell"
    INDEX 00 00:00:00
    INDEX 01 00:00:33
  TRACK 02 AUDIO
    TITLE "Chans"
    PERFORMER "Ulf Lundell"
    INDEX 00 02:20:58
    INDEX 01 02:20:60
  TRACK 03 AUDIO
    TITLE "Den Vassa Eggen"
    PERFORMER "Ulf Lundell"
    INDEX 01 08:05:55
  TRACK 04 AUDIO
    TITLE "Kyssar Och Smek"
    PERFORMER "Ulf Lundell"
    INDEX 00 13:56:28
    INDEX 01 13:58:18
  TRACK 05 AUDIO
    TITLE "Nytt Liv"
    PERFORMER "Ulf Lundell"
    INDEX 00 20:27:59
    INDEX 01 20:27:73
  TRACK 06 AUDIO
    TITLE "Aktenskap"
    PERFORMER "Ulf Lundell"
    INDEX 00 25:54:72
    INDEX 01 25:54:73
  TRACK 07 AUDIO
    TITLE "Inte Ett Ont Ord"
    PERFORMER "Ulf Lundell"
    INDEX 00 30:59:58
    INDEX 01 30:59:63
  TRACK 08 AUDIO
    TITLE "En Fri Man I Stan"
    PERFORMER "Ulf Lundell"
    INDEX 01 36:16:33
Код:
-----------------------
DON'T MODIFY THIS FILE
-----------------------
PERFORMER: auCDtect Task Manager, ver. 1.5.1RC6 build 1.5.1.7
Copyright (c) 2008-2010 y-soft. All rights reserved
[url=http://y-soft.org]http://y-soft.org[/url]
ANALYZER: auCDtect: CD records authenticity detector, version 0.8.2
Copyright (c) 2004 Oleg Berngardt. All rights reserved.
Copyright (c) 2004 Alexander Djourik. All rights reserved.
FILE: Ulf Lundell - Den Vassa Eggen (Disc 1).flac
  Size: 277735048 Hash: C31B5DC56692BCBC09B344CA1755C79C Accuracy: -m0
  Conclusion: CDDA 100%
  Signature: 4BE461DCE23CDA8D6593F266FFF2AB4E8153FA79
Треклист:
01. Lit De Parade.
02
. En Angel pa Isen.
03. Aldrig Sa Ensam.
04. Tuff Match.
05. Frammande Stad.
06. Vi Kunde Ha Alskat.
07. Rialto.
Код:
Exact Audio Copy V1.1 from 23. June 2015
Отчёт EAC об извлечении, выполненном 12. июня 2016, 21:51
Ulf Lundell / Den Vassa Eggen (Disc 2)
Дисковод: PLEXTOR DVDR   PX-712A   Adapter: 8  ID: 0
Режим чтения                 : Достоверность
Использование точного потока : Да
Отключение кэша аудио        : Да
Использование указателей C2  : Нет
Коррекция смещения при чтении                     : 30
Способность читать области Lead-in и Lead-out     : Нет
Заполнение пропущенных сэмплов тишиной            : Да
Удаление блоков с тишиной в начале и конце        : Нет
При вычислениях CRC использовались нулевые сэмплы : Да
Интерфейс                                         : Установленный внешний ASPI-интерфейс
Выходной формат          : Пользовательский кодировщик
Выбранный битрейт        : 128 kBit/s
Качество                 : Высокий
Добавление ID3-тега      : Нет
Утилита сжатия           : C:\Program Files\Exact Audio Copy\Flac\flac.exe
Дополнительные параметры : -V -8 -T "Genre=%genre%" -T "Artist=%artist%" -T "Title=%title%" -T "Album=%albumtitle%" -T "Date=%year%" -T "Tracknumber=%tracknr%" -T "Comment=%comment%" %source%
TOC извлечённого CD
     Трек |   Старт  | Длительность | Начальный сектор | Конечный сектор
    ---------------------------------------------------------------------
       1  |  0:00.32 |    5:39.73   |          32      |      25529
       2  |  5:40.30 |    6:55.55   |       25530      |      56709
       3  | 12:36.10 |    9:03.00   |       56710      |      97434
       4  | 21:39.10 |    3:43.35   |       97435      |     114194
       5  | 25:22.45 |    6:38.57   |      114195      |     144101
       6  | 32:01.27 |    4:35.68   |      144102      |     164794
       7  | 36:37.20 |    7:57.37   |      164795      |     200606
Характеристики диапазона извлечения и сообщения об ошибках
Выбранный диапазон
     Имя файла I:\MOI_RAZDACI\Ulf Lundell 1986\Ulf.Lundell_Den.Vassa.Eggen_1986\CD-2\Ulf Lundell - Den Vassa Eggen (Disc 2).wav
     Пиковый уровень 83.1 %
     Скорость извлечения 12.0 X
     Качество диапазона 100.0 %
     CRC теста 1934B574
     CRC копии 1934B574
     Копирование... OK
Ошибок не произошло
AccurateRip: сводка
Трек  1  отсутствует в базе данных
Трек  2  отсутствует в базе данных
Трек  3  отсутствует в базе данных
Трек  4  отсутствует в базе данных
Трек  5  отсутствует в базе данных
Трек  6  отсутствует в базе данных
Трек  7  отсутствует в базе данных
Ни одного трека нет в базе AccurateRip
Конец отчёта
---- CUETools DB Plugin V2.1.6
[CTDB TOCID: lnYyJNIiMWMF_AuZDPhlIFXxbvA-] found
Submit result: lnYyJNIiMWMF_AuZDPhlIFXxbvA- has been confirmed
Track | CTDB Status
  1   | (2/2) Accurately ripped
  2   | (2/2) Accurately ripped
  3   | (2/2) Accurately ripped
  4   | (2/2) Accurately ripped
  5   | (2/2) Accurately ripped
  6   | (2/2) Accurately ripped
  7   | (2/2) Accurately ripped
==== Контрольная сумма отчёта D660CCA4F85A7180373BBFFACEDAB3FB7E198623663C35C998ED81D2EF425A10 ====
Код:
REM GENRE Rock
REM DATE 1986
REM DISCID 540A7207
REM COMMENT "ExactAudioCopy v1.1"
CATALOG 0000000000000
PERFORMER "Ulf Lundell"
TITLE "Den Vassa Eggen (Disc 2)"
FILE "Ulf Lundell - Den Vassa Eggen (Disc 2).flac" WAVE
  TRACK 01 AUDIO
    TITLE "Lit De Parade"
    PERFORMER "Ulf Lundell"
    INDEX 00 00:00:00
    INDEX 01 00:00:32
  TRACK 02 AUDIO
    TITLE "En Angel pa Isen"
    PERFORMER "Ulf Lundell"
    INDEX 00 05:40:21
    INDEX 01 05:40:30
  TRACK 03 AUDIO
    TITLE "Aldrig Sa Ensam"
    PERFORMER "Ulf Lundell"
    INDEX 01 12:36:10
  TRACK 04 AUDIO
    TITLE "Tuff Match"
    PERFORMER "Ulf Lundell"
    INDEX 01 21:39:10
  TRACK 05 AUDIO
    TITLE "Frammande Stad"
    PERFORMER "Ulf Lundell"
    INDEX 00 25:19:60
    INDEX 01 25:22:45
  TRACK 06 AUDIO
    TITLE "Vi Kunde Ha Alskat"
    PERFORMER "Ulf Lundell"
    INDEX 00 32:01:22
    INDEX 01 32:01:27
  TRACK 07 AUDIO
    TITLE "Rialto"
    PERFORMER "Ulf Lundell"
    INDEX 01 36:37:20
Код:
-----------------------
DON'T MODIFY THIS FILE
-----------------------
PERFORMER: auCDtect Task Manager, ver. 1.5.1RC6 build 1.5.1.7
Copyright (c) 2008-2010 y-soft. All rights reserved
[url=http://y-soft.org]http://y-soft.org[/url]
ANALYZER: auCDtect: CD records authenticity detector, version 0.8.2
Copyright (c) 2004 Oleg Berngardt. All rights reserved.
Copyright (c) 2004 Alexander Djourik. All rights reserved.
FILE: Ulf Lundell - Den Vassa Eggen (Disc 2).flac
  Size: 258546071 Hash: ECA71CAA2C6695AD0CAE46F44B5D0949 Accuracy: -m0
  Conclusion: CDDA 100%
  Signature: 60C2B33452B72EC54ABB5658714ED32C73762462




Правила, инструкции, FAQ!!!
Торрент  Добавлен [26 мар 2019, 19:16] Скачать торрент Магнет ссылка
Скачать торрент
[ Размер 11.98 КБ / Просмотров 2 ]

Статус
Проверен 
 
Размер  536.97 МБ
Приватный: Нет (DHT включён)
.torrent скачан  0
 


     Отправить личное сообщение
   
Страница 1 из 1
Показать сообщения за:  Поле сортировки  
Начать новую тему Ответить на тему


Сейчас этот форум просматривают: нет зарегистрированных пользователей и гости: 0


Вы не можете начинать темы
Вы не можете отвечать на сообщения
Вы не можете редактировать свои сообщения
Вы не можете удалять свои сообщения
Вы не можете добавлять вложения

Перейти:  
cron