Начать новую тему Ответить на тему
Статистика раздачи
Размер: 251.59 МБ | Добавлен: 26 мар 2019, 20:55 | Скачали: 0
Сидеров: 0  [0 байт/сек]    Личеров: 0  [0 байт/сек]
Пред. тема | След. тема 

Автор
Сообщение

СообщениеДобавлено: 26 мар 2019, 20:55 

Ответить с цитатой 

Seals & Crofts / Year Of Sunday
Жанр: Rock / Soft Rock / Pop Rock
Носитель: CD
Страна-производитель диска (релиза): USA
Год издания: 1971
Издатель (лейбл): Wounded Bird
Номер по каталогу: WOU 2568
Страна исполнителя (группы): USA
Аудиокодек: FLAC (*.flac)
Тип рипа: image+.cue
Битрейт аудио: lossless
Продолжительность: 00:37:24
Источник (релизер): собственный рип
Наличие сканов в содержимом раздачи: да
Треклист:
1. When I Meet Them 3:15
2. 'Cause You Love 3:22
3. Antoinette 3:37
4. High On A Mountain 4:08
5. Year Of Sunday 5:48
6. Paper Airplanes 2:41
7. Irish Linen 3:27
8. Springfield Mill 3:05
9. Ancient Of The Old 3:25
10. Sudan Village 4:08
Код:
Exact Audio Copy V1.1 from 23. June 2015
Отчёт EAC об извлечении, выполненном 13. февраля 2016, 22:06
Seals & Crofts / Year Of Sunday
Дисковод: ASUS    DRW-24B3ST   Adapter: 0  ID: 0
Режим чтения                 : Достоверность
Использование точного потока : Да
Отключение кэша аудио        : Да
Использование указателей C2  : Нет
Коррекция смещения при чтении                     : 6
Способность читать области Lead-in и Lead-out     : Нет
Заполнение пропущенных сэмплов тишиной            : Да
Удаление блоков с тишиной в начале и конце        : Нет
При вычислениях CRC использовались нулевые сэмплы : Да
Интерфейс                                         : Установленный внешний ASPI-интерфейс
Выходной формат          : Пользовательский кодировщик
Выбранный битрейт        : 1024 kBit/s
Качество                 : Высокий
Добавление ID3-тега      : Нет
Утилита сжатия           : C:\Program Files (x86)\Exact Audio Copy\FLAC\FLAC.EXE
Дополнительные параметры : -6 -V -T "ARTIST=%artist%" -T "TITLE=%title%" -T "ALBUM=%albumtitle%" -T "DATE=%year%" -T "TRACKNUMBER=%tracknr%" -T "GENRE=%genre%" -T "COMMENT=%comment%" -T "BAND=%albuminterpret%" -T "ALBUMARTIST=%albuminterpret%" -T "COMPOSER=%composer%" %haslyrics%--tag-from-file=LYRICS="%lyricsfile%"%haslyrics% -T "DISCNUMBER=%cdnumber%" -T "TOTALDISCS=%totalcds%" -T "TOTALTRACKS=%numtracks%" %hascover%--picture="%coverfile%"%hascover% %source% -o %dest%
TOC извлечённого CD
     Трек |   Старт  | Длительность | Начальный сектор | Конечный сектор
    ---------------------------------------------------------------------
       1  |  0:00.00 |    3:07.37   |           0      |      14061
       2  |  3:07.37 |    3:25.17   |       14062      |      29453
       3  |  6:32.54 |    3:39.18   |       29454      |      45896
       4  | 10:11.72 |    4:12.11   |       45897      |      64807
       5  | 14:24.08 |    5:52.53   |       64808      |      91260
       6  | 20:16.61 |    2:53.61   |       91261      |     104296
       7  | 23:10.47 |    3:30.27   |      104297      |     120073
       8  | 26:40.74 |    3:07.57   |      120074      |     134155
       9  | 29:48.56 |    3:26.39   |      134156      |     149644
      10  | 33:15.20 |    4:08.34   |      149645      |     168278
Характеристики диапазона извлечения и сообщения об ошибках
Выбранный диапазон
     Имя файла E:\Torrents\Seals & Crofts - 1971 - Year Of Sunday\Seals & Crofts - Year Of Sunday.wav
     Пиковый уровень 97.3 %
     Скорость извлечения 8.1 X
     Качество диапазона 100.0 %
     CRC теста EECF9F98
     CRC копии EECF9F98
     Копирование... OK
Ошибок не произошло
Конец отчёта
==== Контрольная сумма отчёта 81B6A8D278888E80BAD9A1613755697B6D06DA03795D7F94EF8463E3DCCAFAC3 ====
Bass – Bobby Lichtig
Drums – Russ Kunkel
Electric Guitar – Louie Shelton
Guitar, Fiddle, Vocals, Lyrics By – James Seals
Keyboards – Larry Muhoberac
Mandolin, Vocals – Dash Crofts
Percussion – Victor Feldman
Producer – Louie Shelton
Правила, инструкции, FAQ!!!
Торрент  Добавлен [26 мар 2019, 20:55] Скачать торрент Магнет ссылка
Скачать торрент
[ Размер 20.52 КБ / Просмотров 1 ]

Статус
Проверен 
 
Размер  251.59 МБ
Приватный: Нет (DHT включён)
.torrent скачан  0
 


     Отправить личное сообщение
   
Страница 1 из 1
Показать сообщения за:  Поле сортировки  
Начать новую тему Ответить на тему


Сейчас этот форум просматривают: нет зарегистрированных пользователей и гости: 0


Вы не можете начинать темы
Вы не можете отвечать на сообщения
Вы не можете редактировать свои сообщения
Вы не можете удалять свои сообщения
Вы не можете добавлять вложения

Перейти:  
cron