Начать новую тему Ответить на тему
Статистика раздачи
Размер: 277.34 МБ | Добавлен: 26 мар 2019, 20:54 | Скачали: 0
Сидеров: 0  [0 байт/сек]    Личеров: 0  [0 байт/сек]
Пред. тема | След. тема 

Автор
Сообщение

СообщениеДобавлено: 26 мар 2019, 20:54 

Ответить с цитатой 

Seals & Crofts / The Longest Road
Жанр: Rock / Soft Rock / Pop Rock
Носитель: CD
Страна-производитель диска (релиза): USA
Год издания: 1980
Издатель (лейбл): Wounded Bird
Номер по каталогу: WOU 3365
Страна исполнителя (группы): USA
Аудиокодек: FLAC (*.flac)
Тип рипа: image+.cue
Битрейт аудио: lossless
Продолжительность: 00:43:31
Источник (релизер): собственный рип
Наличие сканов в содержимом раздачи: да
Треклист:
1. Stars 5:55
2. Try You Love 4:14
3. First Love 3:44
4. If And Any Day 3:58
5. Kite Dreams 3:47
6. Egypt 4:06
7. The Longest Road 3:44
8. I Keep Changing The Faces 4:36
9. Silver Rails 5:14
10. One Planet 3:40
Код:
Exact Audio Copy V1.1 from 23. June 2015
Отчёт EAC об извлечении, выполненном 13. февраля 2016, 22:33
Seals & Crofts / The Longest Road
Дисковод: ASUS    DRW-24B3ST   Adapter: 0  ID: 0
Режим чтения                 : Достоверность
Использование точного потока : Да
Отключение кэша аудио        : Да
Использование указателей C2  : Нет
Коррекция смещения при чтении                     : 6
Способность читать области Lead-in и Lead-out     : Нет
Заполнение пропущенных сэмплов тишиной            : Да
Удаление блоков с тишиной в начале и конце        : Нет
При вычислениях CRC использовались нулевые сэмплы : Да
Интерфейс                                         : Установленный внешний ASPI-интерфейс
Выходной формат          : Пользовательский кодировщик
Выбранный битрейт        : 1024 kBit/s
Качество                 : Высокий
Добавление ID3-тега      : Нет
Утилита сжатия           : C:\Program Files (x86)\Exact Audio Copy\FLAC\FLAC.EXE
Дополнительные параметры : -6 -V -T "ARTIST=%artist%" -T "TITLE=%title%" -T "ALBUM=%albumtitle%" -T "DATE=%year%" -T "TRACKNUMBER=%tracknr%" -T "GENRE=%genre%" -T "COMMENT=%comment%" -T "BAND=%albuminterpret%" -T "ALBUMARTIST=%albuminterpret%" -T "COMPOSER=%composer%" %haslyrics%--tag-from-file=LYRICS="%lyricsfile%"%haslyrics% -T "DISCNUMBER=%cdnumber%" -T "TOTALDISCS=%totalcds%" -T "TOTALTRACKS=%numtracks%" %hascover%--picture="%coverfile%"%hascover% %source% -o %dest%
TOC извлечённого CD
     Трек |   Старт  | Длительность | Начальный сектор | Конечный сектор
    ---------------------------------------------------------------------
       1  |  0:00.00 |    5:58.63   |           0      |      26912
       2  |  5:58.63 |    4:17.51   |       26913      |      46238
       3  | 10:16.39 |    3:47.54   |       46239      |      63317
       4  | 14:04.18 |    4:01.52   |       63318      |      81444
       5  | 18:05.70 |    3:50.05   |       81445      |      98699
       6  | 21:56.00 |    4:09.15   |       98700      |     117389
       7  | 26:05.15 |    3:47.58   |      117390      |     134472
       8  | 29:52.73 |    4:38.69   |      134473      |     155391
       9  | 34:31.67 |    5:17.68   |      155392      |     179234
      10  | 39:49.60 |    3:41.27   |      179235      |     195836
Характеристики диапазона извлечения и сообщения об ошибках
Выбранный диапазон
     Имя файла E:\Torrents\Seals & Crofts - 1980 - The Longest Road\Seals & Crofts - The Longest Road.wav
     Пиковый уровень 97.2 %
     Скорость извлечения 7.9 X
     Качество диапазона 99.9 %
     CRC теста 341F8A29
     CRC копии 341F8A29
     Копирование... OK
Ошибок не произошло
Конец отчёта
==== Контрольная сумма отчёта ED64B161F859E021B758D7573FD6DF6160D4E515E69B5C7DA6D7535438C823AC ====
Правила, инструкции, FAQ!!!
Торрент  Добавлен [26 мар 2019, 20:54] Скачать торрент Магнет ссылка
Скачать торрент
[ Размер 11.7 КБ / Просмотров 3 ]

Статус
Проверен 
 
Размер  277.34 МБ
Приватный: Нет (DHT включён)
.torrent скачан  0
 


     Отправить личное сообщение
   
Страница 1 из 1
Показать сообщения за:  Поле сортировки  
Начать новую тему Ответить на тему


Сейчас этот форум просматривают: нет зарегистрированных пользователей и гости: 0


Вы не можете начинать темы
Вы не можете отвечать на сообщения
Вы не можете редактировать свои сообщения
Вы не можете удалять свои сообщения
Вы не можете добавлять вложения

Перейти:  
cron