Начать новую тему Ответить на тему
Статистика раздачи
Размер: 1.39 ГБ | Добавлен: 26 мар 2019, 20:53 | Скачали: 0
Сидеров: 0  [0 байт/сек]    Личеров: 0  [0 байт/сек]
Пред. тема | След. тема 

Автор
Сообщение

СообщениеДобавлено: 26 мар 2019, 20:53 

Ответить с цитатой 

Seals & Crofts / Original Album Series (5CD Box Set)
Жанр: Rock / Soft Rock / Pop Rock
Носитель: CD
Страна-производитель диска (релиза): EU
Год издания: 2015
Издатель (лейбл): Rhino Records / Warner Music
Номер по каталогу: 0081227955908
Аудиокодек: FLAC (*.flac)
Тип рипа: image+.cue
Битрейт аудио: lossless
Источник (релизер): ALLexxess
Наличие сканов в содержимом раздачи: да
#77701 Hummingbird
02 Funny Little Man
03 Say
04 Summer Breeze
05 East Of Ginger Trees
06 Fiddle In The Sky
07 The Boy Down The Road
08 The Euphrates
09 Advance Guards
10 Yellow Dirt
Код:
Exact Audio Copy V1.1 from 23. June 2015
EAC extraction logfile from 6. July 2015, 14:58
Seals & Crofts / Summer Breeze
Used drive  : PLEXTOR BD-R  PX-B950SA   Adapter: 1  ID: 1
Read mode               : Secure
Utilize accurate stream : Yes
Defeat audio cache      : Yes
Make use of C2 pointers : No
Read offset correction                      : 6
Overread into Lead-In and Lead-Out          : No
Fill up missing offset samples with silence : Yes
Delete leading and trailing silent blocks   : No
Null samples used in CRC calculations       : Yes
Used interface                              : Native Win32 interface for Win NT & 2000
Used output format : Internal WAV Routines
Sample format      : 44.100 Hz; 16 Bit; Stereo
TOC of the extracted CD
     Track |   Start  |  Length  | Start sector | End sector
    ---------------------------------------------------------
        1  |  0:00.00 |  4:40.40 |         0    |    21039
        2  |  4:40.40 |  3:12.07 |     21040    |    35446
        3  |  7:52.47 |  2:41.30 |     35447    |    47551
        4  | 10:34.02 |  3:29.35 |     47552    |    63261
        5  | 14:03.37 |  3:49.70 |     63262    |    80506
        6  | 17:53.32 |  3:32.15 |     80507    |    96421
        7  | 21:25.47 |  4:31.03 |     96422    |   116749
        8  | 25:56.50 |  4:18.52 |    116750    |   136151
        9  | 30:15.27 |  4:15.35 |    136152    |   155311
       10  | 34:30.62 |  5:15.30 |    155312    |   178966
Range status and errors
Selected range
     Filename C:\Users\Meijin\Desktop\Lossless Galaxy ALLexxess\Seals & Crofts\2015 Original Album Series (5CD Box Set Rhino Records)\1972 Summer Breeze\Seals & Crofts - Summer Breeze.wav
     Peak level 100.0 %
     Extraction speed 6.5 X
     Range quality 100.0 %
     Test CRC 22B69BF2
     Copy CRC 22B69BF2
     Copy OK
No errors occurred
AccurateRip summary
Track  1  accurately ripped (confidence 3)  [AE05187E]  (AR v2)
Track  2  accurately ripped (confidence 3)  [D09EF5C1]  (AR v2)
Track  3  accurately ripped (confidence 3)  [8DAED096]  (AR v2)
Track  4  accurately ripped (confidence 3)  [C1F8B742]  (AR v2)
Track  5  accurately ripped (confidence 3)  [17A5863C]  (AR v2)
Track  6  accurately ripped (confidence 3)  [8BB9981A]  (AR v2)
Track  7  accurately ripped (confidence 3)  [7E6D10CE]  (AR v2)
Track  8  accurately ripped (confidence 3)  [61128D17]  (AR v2)
Track  9  accurately ripped (confidence 3)  [E36439E8]  (AR v2)
Track 10  accurately ripped (confidence 3)  [10572E32]  (AR v2)
All tracks accurately ripped
End of status report
---- CUETools DB Plugin V2.1.6
[CTDB TOCID: miPcqaDbm2Hu9OQQXBTSp3dnJuA-] found
Submit result: miPcqaDbm2Hu9OQQXBTSp3dnJuA- has been confirmed
Track | CTDB Status
  1   | (3/3) Accurately ripped
  2   | (3/3) Accurately ripped
  3   | (3/3) Accurately ripped
  4   | (3/3) Accurately ripped
  5   | (3/3) Accurately ripped
  6   | (3/3) Accurately ripped
  7   | (3/3) Accurately ripped
  8   | (3/3) Accurately ripped
  9   | (3/3) Accurately ripped
 10   | (3/3) Accurately ripped
==== Log checksum 7034B5B5C02631A405B20394E93FAA61C2144AC88612F85185B1ACEF83B1BCDD ====
Код:
REM GENRE "Soft Rock / Pop Rock"
REM DATE 1972
REM DISCID 8B09520A
REM COMMENT "ExactAudioCopy v1.1"
PERFORMER "Seals & Crofts"
TITLE "Summer Breeze"
FILE "Seals & Crofts - Summer Breeze.wav" WAVE
  TRACK 01 AUDIO
    TITLE "Hummingbird"
    PERFORMER "Seals & Crofts"
    INDEX 01 00:00:00
  TRACK 02 AUDIO
    TITLE "Funny Little Man"
    PERFORMER "Seals & Crofts"
    INDEX 00 04:35:45
    INDEX 01 04:40:40
  TRACK 03 AUDIO
    TITLE "Say"
    PERFORMER "Seals & Crofts"
    INDEX 00 07:51:22
    INDEX 01 07:52:47
  TRACK 04 AUDIO
    TITLE "Summer Breeze"
    PERFORMER "Seals & Crofts"
    INDEX 00 10:30:35
    INDEX 01 10:34:02
  TRACK 05 AUDIO
    TITLE "East Of Ginger Trees"
    PERFORMER "Seals & Crofts"
    INDEX 00 13:58:17
    INDEX 01 14:03:37
  TRACK 06 AUDIO
    TITLE "Fiddle In The Sky"
    PERFORMER "Seals & Crofts"
    INDEX 00 17:51:60
    INDEX 01 17:53:32
  TRACK 07 AUDIO
    TITLE "The Boy Down The Road"
    PERFORMER "Seals & Crofts"
    INDEX 00 21:24:55
    INDEX 01 21:25:47
  TRACK 08 AUDIO
    TITLE "The Euphrates"
    PERFORMER "Seals & Crofts"
    INDEX 00 25:55:15
    INDEX 01 25:56:50
  TRACK 09 AUDIO
    TITLE "Advance Guards"
    PERFORMER "Seals & Crofts"
    INDEX 00 30:13:60
    INDEX 01 30:15:27
  TRACK 10 AUDIO
    TITLE "Yellow Dirt"
    PERFORMER "Seals & Crofts"
    INDEX 00 34:30:27
    INDEX 01 34:30:62
Код:
-----------------------
DON'T MODIFY THIS FILE
-----------------------
PERFORMER: auCDtect Task Manager, ver. 1.6.0 RC1 build 1.6.0.1
Copyright (c) 2008-2010 y-soft. All rights reserved
[url=http://y-soft.org]http://y-soft.org[/url]
ANALYZER: auCDtect: CD records authenticity detector, version 0.8.2
Copyright (c) 2004 Oleg Berngardt. All rights reserved.
Copyright (c) 2004 Alexander Djourik. All rights reserved.
FILE: Seals & Crofts - Summer Breeze.wav
  Size: 420930428 Hash: D308EE6FC1CAEFE5DC6F6E938289DFC1 Accuracy: -m8
  Conclusion: CDDA 100%
  Signature: F386606A9E56587C1FFBD4988FE2332E2F0DAA30
FILE: Seals & Crofts - Summer Breeze.flac
  Size: 257787740 Hash: D308EE6FC1CAEFE5DC6F6E938289DFC1 Accuracy: -m8
  Conclusion: CDDA 100%
  Signature: 8C32F5C55F3D3F4BE09D01D4A6FF191D3CC74DC8
#77701 Diamond Girl
02 Ruby Jean And Billie Lee
03 Intone My Servant
04 We May Never Pass This Way (Again)
05 Nine Houses
06 Standin’ On A Mountain Top
07 It’s Gonna Come Down (On You)
08 Jessica
09 Dust On My Saddle
10 Wisdom
Код:
Exact Audio Copy V1.1 from 23. June 2015
EAC extraction logfile from 5. July 2015, 20:03
Seals & Crofts / Diamond Girl
Used drive  : PLEXTOR BD-R  PX-B950SA   Adapter: 1  ID: 1
Read mode               : Secure
Utilize accurate stream : Yes
Defeat audio cache      : Yes
Make use of C2 pointers : No
Read offset correction                      : 6
Overread into Lead-In and Lead-Out          : No
Fill up missing offset samples with silence : Yes
Delete leading and trailing silent blocks   : No
Null samples used in CRC calculations       : Yes
Used interface                              : Native Win32 interface for Win NT & 2000
Used output format : Internal WAV Routines
Sample format      : 44.100 Hz; 16 Bit; Stereo
TOC of the extracted CD
     Track |   Start  |  Length  | Start sector | End sector
    ---------------------------------------------------------
        1  |  0:00.00 |  4:13.30 |         0    |    19004
        2  |  4:13.30 |  4:09.25 |     19005    |    37704
        3  |  8:22.55 |  3:04.40 |     37705    |    51544
        4  | 11:27.20 |  4:18.27 |     51545    |    70921
        5  | 15:45.47 |  7:01.35 |     70922    |   102531
        6  | 22:47.07 |  3:06.18 |    102532    |   116499
        7  | 25:53.25 |  4:41.02 |    116500    |   137576
        8  | 30:34.27 |  2:55.13 |    137577    |   150714
        9  | 33:29.40 |  3:16.10 |    150715    |   165424
       10  | 36:45.50 |  4:26.60 |    165425    |   185434
Range status and errors
Selected range
     Filename C:\Users\Meijin\Desktop\Lossless Galaxy ALLexxess\Seals & Crofts\2015 Original Album Series (5CD Box Set Rhino Records)\1973 Diamond Girl\Seals & Crofts - Diamond Girl.wav
     Peak level 100.0 %
     Extraction speed 6.6 X
     Range quality 100.0 %
     Test CRC 44DA0FFE
     Copy CRC 44DA0FFE
     Copy OK
No errors occurred
AccurateRip summary
Track  1  accurately ripped (confidence 3)  [68AC4868]  (AR v2)
Track  2  accurately ripped (confidence 3)  [D389541C]  (AR v2)
Track  3  accurately ripped (confidence 3)  [B5386433]  (AR v2)
Track  4  accurately ripped (confidence 3)  [C23EF0C5]  (AR v2)
Track  5  accurately ripped (confidence 3)  [CFD56D0C]  (AR v2)
Track  6  accurately ripped (confidence 3)  [09142C66]  (AR v2)
Track  7  accurately ripped (confidence 3)  [63F2F3A3]  (AR v2)
Track  8  accurately ripped (confidence 3)  [DDD1F2A0]  (AR v2)
Track  9  accurately ripped (confidence 3)  [B57533D2]  (AR v2)
Track 10  accurately ripped (confidence 3)  [B051876F]  (AR v2)
All tracks accurately ripped
End of status report
---- CUETools DB Plugin V2.1.6
[CTDB TOCID: wBInjQC4dBF02jHkj1ia9WqXb5o-] found
Submit result: wBInjQC4dBF02jHkj1ia9WqXb5o- has been confirmed
Track | CTDB Status
  1   | (3/3) Accurately ripped
  2   | (3/3) Accurately ripped
  3   | (3/3) Accurately ripped
  4   | (3/3) Accurately ripped
  5   | (3/3) Accurately ripped
  6   | (3/3) Accurately ripped
  7   | (3/3) Accurately ripped
  8   | (3/3) Accurately ripped
  9   | (3/3) Accurately ripped
 10   | (3/3) Accurately ripped
==== Log checksum 7588B81C2D3B3FC5C514ADEC18AFF0DAA77540CCD10E201019418360C843B77F ====
Код:
REM GENRE "Soft Rock / Pop Rock"
REM DATE 1973
REM DISCID 8609A80A
REM COMMENT "ExactAudioCopy v1.1"
PERFORMER "Seals & Crofts"
TITLE "Diamond Girl"
FILE "Seals & Crofts - Diamond Girl.wav" WAVE
  TRACK 01 AUDIO
    TITLE "Diamond Girl"
    PERFORMER "Seals & Crofts"
    INDEX 01 00:00:00
  TRACK 02 AUDIO
    TITLE "Ruby Jean And Billie Lee"
    PERFORMER "Seals & Crofts"
    INDEX 00 04:10:62
    INDEX 01 04:13:30
  TRACK 03 AUDIO
    TITLE "Intone My Servant"
    PERFORMER "Seals & Crofts"
    INDEX 00 08:22:00
    INDEX 01 08:22:55
  TRACK 04 AUDIO
    TITLE "We May Never Pass This Way (Again)"
    PERFORMER "Seals & Crofts"
    INDEX 00 11:26:22
    INDEX 01 11:27:20
  TRACK 05 AUDIO
    TITLE "Nine Houses"
    PERFORMER "Seals & Crofts"
    INDEX 00 15:43:07
    INDEX 01 15:45:47
  TRACK 06 AUDIO
    TITLE "Standin’ On A Mountain Top"
    PERFORMER "Seals & Crofts"
    INDEX 00 22:45:25
    INDEX 01 22:47:07
  TRACK 07 AUDIO
    TITLE "It’s Gonna Come Down (On You)"
    PERFORMER "Seals & Crofts"
    INDEX 00 25:51:52
    INDEX 01 25:53:25
  TRACK 08 AUDIO
    TITLE "Jessica"
    PERFORMER "Seals & Crofts"
    INDEX 00 30:32:65
    INDEX 01 30:34:27
  TRACK 09 AUDIO
    TITLE "Dust On My Saddle"
    PERFORMER "Seals & Crofts"
    INDEX 00 33:28:63
    INDEX 01 33:29:40
  TRACK 10 AUDIO
    TITLE "Wisdom"
    PERFORMER "Seals & Crofts"
    INDEX 00 36:44:14
    INDEX 01 36:45:50
Код:
-----------------------
DON'T MODIFY THIS FILE
-----------------------
PERFORMER: auCDtect Task Manager, ver. 1.6.0 RC1 build 1.6.0.1
Copyright (c) 2008-2010 y-soft. All rights reserved
[url=http://y-soft.org]http://y-soft.org[/url]
ANALYZER: auCDtect: CD records authenticity detector, version 0.8.2
Copyright (c) 2004 Oleg Berngardt. All rights reserved.
Copyright (c) 2004 Alexander Djourik. All rights reserved.
FILE: Seals & Crofts - Diamond Girl.wav
  Size: 436143164 Hash: D15346070259308D4762244CA5AEAB46 Accuracy: -m8
  Conclusion: CDDA 100%
  Signature: 019FAF0C229D673C532E68FF169EBBD4607CF14B
FILE: Seals & Crofts - Diamond Girl.flac
  Size: 260511412 Hash: D15346070259308D4762244CA5AEAB46 Accuracy: -m8
  Conclusion: CDDA 100%
  Signature: 164E8FD6B207845977BB66974C1186D696F9D875
#777
01 Prelude / Windflowers
02 Desert People
03 Unborn Child
04 The Story Of Her Love
05 Dance By The Light Of The Moon
06 Rachel
07 King Of Nothing
08 29 Years From Texas
09 Ledges
10 Follow Me
11 Big Mac
Код:
Exact Audio Copy V1.1 from 23. June 2015
EAC extraction logfile from 5. July 2015, 19:39
Seals & Crofts / Unborn Child
Used drive  : PLEXTOR BD-R  PX-B950SA   Adapter: 1  ID: 1
Read mode               : Secure
Utilize accurate stream : Yes
Defeat audio cache      : Yes
Make use of C2 pointers : No
Read offset correction                      : 6
Overread into Lead-In and Lead-Out          : No
Fill up missing offset samples with silence : Yes
Delete leading and trailing silent blocks   : No
Null samples used in CRC calculations       : Yes
Used interface                              : Native Win32 interface for Win NT & 2000
Used output format : Internal WAV Routines
Sample format      : 44.100 Hz; 16 Bit; Stereo
TOC of the extracted CD
     Track |   Start  |  Length  | Start sector | End sector
    ---------------------------------------------------------
        1  |  0:00.00 |  3:49.55 |         0    |    17229
        2  |  3:49.55 |  3:31.09 |     17230    |    33063
        3  |  7:20.64 |  3:56.48 |     33064    |    50811
        4  | 11:17.37 |  3:32.24 |     50812    |    66735
        5  | 14:49.61 |  4:43.53 |     66736    |    88013
        6  | 19:33.39 |  0:55.68 |     88014    |    92206
        7  | 20:29.32 |  3:19.17 |     92207    |   107148
        8  | 23:48.49 |  3:11.41 |    107149    |   121514
        9  | 27:00.15 |  3:08.54 |    121515    |   135668
       10  | 30:08.69 |  3:41.61 |    135669    |   152304
       11  | 33:50.55 |  4:21.12 |    152305    |   171891
Range status and errors
Selected range
     Filename C:\Users\Meijin\Desktop\Lossless Galaxy ALLexxess\Seals & Crofts\2015 Original Album Series (5CD Box Set Rhino Records)\1974 Unborn Child\Seals & Crofts - Unborn Child.wav
     Peak level 97.2 %
     Extraction speed 6.5 X
     Range quality 100.0 %
     Test CRC 00DF3015
     Copy CRC 00DF3015
     Copy OK
No errors occurred
AccurateRip summary
Track  1  accurately ripped (confidence 3)  [58A5A988]  (AR v2)
Track  2  accurately ripped (confidence 3)  [4471E150]  (AR v2)
Track  3  accurately ripped (confidence 3)  [4FDF198B]  (AR v2)
Track  4  accurately ripped (confidence 3)  [5F1EF250]  (AR v2)
Track  5  accurately ripped (confidence 3)  [6AE60507]  (AR v2)
Track  6  accurately ripped (confidence 3)  [1E33499E]  (AR v2)
Track  7  accurately ripped (confidence 3)  [BDBA968C]  (AR v2)
Track  8  accurately ripped (confidence 3)  [6E435063]  (AR v2)
Track  9  accurately ripped (confidence 3)  [484E9757]  (AR v2)
Track 10  accurately ripped (confidence 3)  [540556AF]  (AR v2)
Track 11  accurately ripped (confidence 3)  [CF6EE34B]  (AR v2)
All tracks accurately ripped
End of status report
---- CUETools DB Plugin V2.1.6
[CTDB TOCID: 3xBJhBV7t6N82CDcT1DHKl4mFu0-] found
Submit result: 3xBJhBV7t6N82CDcT1DHKl4mFu0- has been confirmed
Track | CTDB Status
  1   | (3/3) Accurately ripped
  2   | (3/3) Accurately ripped
  3   | (3/3) Accurately ripped
  4   | (3/3) Accurately ripped
  5   | (3/3) Accurately ripped
  6   | (3/3) Accurately ripped
  7   | (3/3) Accurately ripped
  8   | (3/3) Accurately ripped
  9   | (3/3) Accurately ripped
 10   | (3/3) Accurately ripped
 11   | (3/3) Accurately ripped
==== Log checksum 2F07455CD62F0800378CAC5F17A0F9427904E1C2AE5B914BDAFBC6231BA35ABD ====
Код:
REM GENRE "Soft Rock / Pop Rock"
REM DATE 1974
REM DISCID 7308F30B
REM COMMENT "ExactAudioCopy v1.1"
PERFORMER "Seals & Crofts"
TITLE "Unborn Child"
FILE "Seals & Crofts - Unborn Child.wav" WAVE
  TRACK 01 AUDIO
    TITLE "Windflowers"
    PERFORMER "Seals & Crofts"
    INDEX 01 00:00:00
  TRACK 02 AUDIO
    TITLE "Desert People"
    PERFORMER "Seals & Crofts"
    INDEX 01 03:49:55
  TRACK 03 AUDIO
    TITLE "Unborn Child"
    PERFORMER "Seals & Crofts"
    INDEX 01 07:20:64
  TRACK 04 AUDIO
    TITLE "The Story Of Her Love"
    PERFORMER "Seals & Crofts"
    INDEX 01 11:17:37
  TRACK 05 AUDIO
    TITLE "Dance By The Light Of The Moon"
    PERFORMER "Seals & Crofts"
    INDEX 01 14:49:61
  TRACK 06 AUDIO
    TITLE "Rachel"
    PERFORMER "Seals & Crofts"
    INDEX 01 19:33:39
  TRACK 07 AUDIO
    TITLE "King Of Nothing"
    PERFORMER "Seals & Crofts"
    INDEX 01 20:29:32
  TRACK 08 AUDIO
    TITLE "29 Years From Texas"
    PERFORMER "Seals & Crofts"
    INDEX 01 23:48:49
  TRACK 09 AUDIO
    TITLE "Ledges"
    PERFORMER "Seals & Crofts"
    INDEX 01 27:00:15
  TRACK 10 AUDIO
    TITLE "Follow Me"
    PERFORMER "Seals & Crofts"
    INDEX 01 30:08:69
  TRACK 11 AUDIO
    TITLE "Big Mac"
    PERFORMER "Seals & Crofts"
    INDEX 01 33:50:55
Код:
-----------------------
DON'T MODIFY THIS FILE
-----------------------
PERFORMER: auCDtect Task Manager, ver. 1.6.0 RC1 build 1.6.0.1
Copyright (c) 2008-2010 y-soft. All rights reserved
[url=http://y-soft.org]http://y-soft.org[/url]
ANALYZER: auCDtect: CD records authenticity detector, version 0.8.2
Copyright (c) 2004 Oleg Berngardt. All rights reserved.
Copyright (c) 2004 Alexander Djourik. All rights reserved.
FILE: Seals & Crofts - Unborn Child.wav
  Size: 404290028 Hash: 94B89D000C8C4C9BECA43261E2D5A4D4 Accuracy: -m8
  Conclusion: CDDA 100%
  Signature: BA1B6B530F86513939280EB2884C8CA8B2C73189
FILE: Seals & Crofts - Unborn Child.flac
  Size: 247963876 Hash: 94B89D000C8C4C9BECA43261E2D5A4D4 Accuracy: -m8
  Conclusion: CDDA 100%
  Signature: D48388B7BA194E5601F29EDDB5AA9DC02C53C353
#77701 I’ll Play For You
02 Golden Rainbow
03 Castles In The Sand
04 Blue Bonnet Nation
05 Ugly City
06 Wayland The Rabbit
07 Freaks Fret
08 Truth Is But A Woman
09 Fire And Vengeance
Код:
Exact Audio Copy V1.1 from 23. June 2015
EAC extraction logfile from 5. July 2015, 10:48
Seals & Crofts / I'll Play For You
Used drive  : PLEXTOR BD-R  PX-B950SA   Adapter: 1  ID: 1
Read mode               : Secure
Utilize accurate stream : Yes
Defeat audio cache      : Yes
Make use of C2 pointers : No
Read offset correction                      : 6
Overread into Lead-In and Lead-Out          : No
Fill up missing offset samples with silence : Yes
Delete leading and trailing silent blocks   : No
Null samples used in CRC calculations       : Yes
Used interface                              : Native Win32 interface for Win NT & 2000
Used output format : Internal WAV Routines
Sample format      : 44.100 Hz; 16 Bit; Stereo
TOC of the extracted CD
     Track |   Start  |  Length  | Start sector | End sector
    ---------------------------------------------------------
        1  |  0:00.00 |  4:05.66 |         0    |    18440
        2  |  4:05.66 |  4:31.00 |     18441    |    38765
        3  |  8:36.66 |  4:08.49 |     38766    |    57414
        4  | 12:45.40 |  3:51.23 |     57415    |    74762
        5  | 16:36.63 |  3:32.34 |     74763    |    90696
        6  | 20:09.22 |  6:03.03 |     90697    |   117924
        7  | 26:12.25 |  3:00.08 |    117925    |   131432
        8  | 29:12.33 |  3:05.12 |    131433    |   145319
        9  | 32:17.45 |  4:31.58 |    145320    |   165702
Range status and errors
Selected range
     Filename C:\Users\Meijin\Desktop\Lossless Galaxy ALLexxess\Seals & Crofts\2015 Original Album Series (5CD Box Set Rhino Records)\1975 I'll Play For You\Seals & Crofts - I'll Play For You.wav
     Peak level 97.2 %
     Extraction speed 6.4 X
     Range quality 100.0 %
     Test CRC 7A5C3474
     Copy CRC 7A5C3474
     Copy OK
No errors occurred
AccurateRip summary
Track  1  accurately ripped (confidence 3)  [875238BA]  (AR v2)
Track  2  accurately ripped (confidence 3)  [9F116F8E]  (AR v2)
Track  3  accurately ripped (confidence 3)  [F0E45704]  (AR v2)
Track  4  accurately ripped (confidence 3)  [296DC17D]  (AR v2)
Track  5  accurately ripped (confidence 3)  [F07DE3E8]  (AR v2)
Track  6  accurately ripped (confidence 3)  [754D5725]  (AR v2)
Track  7  accurately ripped (confidence 3)  [7CFD0795]  (AR v2)
Track  8  accurately ripped (confidence 3)  [E1CD7C86]  (AR v2)
Track  9  accurately ripped (confidence 3)  [A61A4135]  (AR v2)
All tracks accurately ripped
End of status report
---- CUETools DB Plugin V2.1.6
[CTDB TOCID: 1WI2.AbTJ0kojI3mJ9v_JuNYiXw-] found
Submit result: 1WI2.AbTJ0kojI3mJ9v_JuNYiXw- has been confirmed
Track | CTDB Status
  1   | (3/3) Accurately ripped
  2   | (3/3) Accurately ripped
  3   | (3/3) Accurately ripped
  4   | (3/3) Accurately ripped
  5   | (3/3) Accurately ripped
  6   | (3/3) Accurately ripped
  7   | (3/3) Accurately ripped
  8   | (3/3) Accurately ripped
  9   | (3/3) Accurately ripped
==== Log checksum C2F01847464BC47840BCECF273868E8A7954991E5C47CD337B36CF723F42977E ====
Код:
REM GENRE "Soft Rock / Pop Rock"
REM DATE 1975
REM DISCID 8808A109
REM COMMENT "ExactAudioCopy v1.1"
PERFORMER "Seals & Crofts"
TITLE "I'll Play For You"
FILE "Seals & Crofts - I'll Play For You.wav" WAVE
  TRACK 01 AUDIO
    TITLE "I'll Play For You"
    PERFORMER "Seals & Crofts"
    INDEX 01 00:00:00
  TRACK 02 AUDIO
    TITLE "Golden Rainbow"
    PERFORMER "Seals & Crofts"
    INDEX 01 04:05:66
  TRACK 03 AUDIO
    TITLE "Castles In The Sand"
    PERFORMER "Seals & Crofts"
    INDEX 01 08:36:66
  TRACK 04 AUDIO
    TITLE "Blue Bonnet Nation"
    PERFORMER "Seals & Crofts"
    INDEX 01 12:45:40
  TRACK 05 AUDIO
    TITLE "Ugly City"
    PERFORMER "Seals & Crofts"
    INDEX 01 16:36:63
  TRACK 06 AUDIO
    TITLE "Wayland The Rabbit"
    PERFORMER "Seals & Crofts"
    INDEX 01 20:09:22
  TRACK 07 AUDIO
    TITLE "Freaks Fret"
    PERFORMER "Seals & Crofts"
    INDEX 01 26:12:25
  TRACK 08 AUDIO
    TITLE "Truth Is But A Woman"
    PERFORMER "Seals & Crofts"
    INDEX 01 29:12:33
  TRACK 09 AUDIO
    TITLE "Fire And Vengeance"
    PERFORMER "Seals & Crofts"
    INDEX 01 32:17:45
Код:
-----------------------
DON'T MODIFY THIS FILE
-----------------------
PERFORMER: auCDtect Task Manager, ver. 1.6.0 RC1 build 1.6.0.1
Copyright (c) 2008-2010 y-soft. All rights reserved
[url=http://y-soft.org]http://y-soft.org[/url]
ANALYZER: auCDtect: CD records authenticity detector, version 0.8.2
Copyright (c) 2004 Oleg Berngardt. All rights reserved.
Copyright (c) 2004 Alexander Djourik. All rights reserved.
FILE: Seals & Crofts - I'll Play For You.wav
  Size: 389733500 Hash: 751FD70EF6EC36E2903F727A9A764E15 Accuracy: -m8
  Conclusion: CDDA 100%
  Signature: D473F13F5F6F387BAF3BFBB884424B4B12949A58
FILE: Seals & Crofts - I'll Play For You.flac
  Size: 240106570 Hash: 751FD70EF6EC36E2903F727A9A764E15 Accuracy: -m8
  Conclusion: CDDA 100%
  Signature: 44771D5DFFE1D965AE20A4A97260226C4A0EAED2
#77701 Sweet Green Fields
02 Get Closer
03 Red Long Ago
04 Goodbye Old Buddies
05 Baby Blue
06 Million Dollar Horse
07 Don’t Fail
08 Passing Thing
Код:
Exact Audio Copy V1.1 from 23. June 2015
EAC extraction logfile from 5. July 2015, 10:23
Seals & Crofts / Get Closer
Used drive  : PLEXTOR BD-R  PX-B950SA   Adapter: 1  ID: 1
Read mode               : Secure
Utilize accurate stream : Yes
Defeat audio cache      : Yes
Make use of C2 pointers : No
Read offset correction                      : 6
Overread into Lead-In and Lead-Out          : No
Fill up missing offset samples with silence : Yes
Delete leading and trailing silent blocks   : No
Null samples used in CRC calculations       : Yes
Used interface                              : Native Win32 interface for Win NT & 2000
Used output format : Internal WAV Routines
Sample format      : 44.100 Hz; 16 Bit; Stereo
TOC of the extracted CD
     Track |   Start  |  Length  | Start sector | End sector
    ---------------------------------------------------------
        1  |  0:00.00 |  4:39.30 |         0    |    20954
        2  |  4:39.30 |  3:59.31 |     20955    |    38910
        3  |  8:38.61 |  5:26.21 |     38911    |    63381
        4  | 14:05.07 |  2:53.31 |     63382    |    76387
        5  | 16:58.38 |  3:23.43 |     76388    |    91655
        6  | 20:22.06 |  3:52.04 |     91656    |   109059
        7  | 24:14.10 |  3:54.03 |    109060    |   126612
        8  | 28:08.13 |  6:20.66 |    126613    |   155178
Range status and errors
Selected range
     Filename C:\Users\Meijin\Desktop\Lossless Galaxy ALLexxess\Seals & Crofts\2015 Original Album Series (5CD Box Set Rhino Records)\1976 Get Closer\Seals & Crofts - Get Closer.wav
     Peak level 91.2 %
     Extraction speed 2.8 X
     Range quality 99.9 %
     Test CRC BE1E85AC
     Copy CRC BE1E85AC
     Copy OK
No errors occurred
AccurateRip summary
Track  1  accurately ripped (confidence 3)  [8F4EBD34]  (AR v2)
Track  2  accurately ripped (confidence 3)  [37EE51E9]  (AR v2)
Track  3  accurately ripped (confidence 3)  [92AEDFCA]  (AR v2)
Track  4  accurately ripped (confidence 3)  [216A5573]  (AR v2)
Track  5  accurately ripped (confidence 3)  [F126ADF4]  (AR v2)
Track  6  accurately ripped (confidence 3)  [403C9823]  (AR v2)
Track  7  accurately ripped (confidence 3)  [93B70726]  (AR v2)
Track  8  accurately ripped (confidence 3)  [CA319CDB]  (AR v2)
All tracks accurately ripped
End of status report
---- CUETools DB Plugin V2.1.6
[CTDB TOCID: vO5xbZKuIu0nfVCPMzuiIjZZNm4-] found
Submit result: vO5xbZKuIu0nfVCPMzuiIjZZNm4- has been confirmed
Track | CTDB Status
  1   | (3/3) Accurately ripped
  2   | (3/3) Accurately ripped
  3   | (3/3) Accurately ripped
  4   | (3/3) Accurately ripped
  5   | (3/3) Accurately ripped
  6   | (3/3) Accurately ripped
  7   | (3/3) Accurately ripped
  8   | (3/3) Accurately ripped
==== Log checksum B5A1237CDF038CB0EBE3BE513DC0E63C759A9E9C159903C96F5E6EFC44297FBA ====
Код:
REM GENRE "Soft Rock / Pop Rock"
REM DATE 1976
REM DISCID 53081508
REM COMMENT "ExactAudioCopy v1.1"
PERFORMER "Seals & Crofts"
TITLE "Get Closer"
FILE "Seals & Crofts - Get Closer.wav" WAVE
  TRACK 01 AUDIO
    TITLE "Sweet Green Fields"
    PERFORMER "Seals & Crofts"
    INDEX 01 00:00:00
  TRACK 02 AUDIO
    TITLE "Get Closer"
    PERFORMER "Seals & Crofts"
    INDEX 01 04:39:30
  TRACK 03 AUDIO
    TITLE "Red Long Ago"
    PERFORMER "Seals & Crofts"
    INDEX 01 08:38:61
  TRACK 04 AUDIO
    TITLE "Goodbye Old Buddies"
    PERFORMER "Seals & Crofts"
    INDEX 01 14:05:07
  TRACK 05 AUDIO
    TITLE "Baby Blue"
    PERFORMER "Seals & Crofts"
    INDEX 01 16:58:38
  TRACK 06 AUDIO
    TITLE "Million Dollar Horse"
    PERFORMER "Seals & Crofts"
    INDEX 01 20:22:06
  TRACK 07 AUDIO
    TITLE "Don't Fail"
    PERFORMER "Seals & Crofts"
    INDEX 01 24:14:10
  TRACK 08 AUDIO
    TITLE "Passing Thing"
    PERFORMER "Seals & Crofts"
    INDEX 01 28:08:13
Код:
-----------------------
DON'T MODIFY THIS FILE
-----------------------
PERFORMER: auCDtect Task Manager, ver. 1.6.0 RC1 build 1.6.0.1
Copyright (c) 2008-2010 y-soft. All rights reserved
[url=http://y-soft.org]http://y-soft.org[/url]
ANALYZER: auCDtect: CD records authenticity detector, version 0.8.2
Copyright (c) 2004 Oleg Berngardt. All rights reserved.
Copyright (c) 2004 Alexander Djourik. All rights reserved.
FILE: Seals & Crofts - Get Closer.wav
  Size: 364981052 Hash: 46A1D4391CCDB256907496DEC514B46D Accuracy: -m8
  Conclusion: CDDA 100%
  Signature: F4802F43C2540193F99604703456105FCEC76A53
FILE: Seals & Crofts - Get Closer.flac
  Size: 193144808 Hash: 46A1D4391CCDB256907496DEC514B46D Accuracy: -m8
  Conclusion: CDDA 100%
  Signature: FFE9DB97873753BE9E455B465DE6B897B6D402D8
Правила, инструкции, FAQ!!!
Торрент  Добавлен [26 мар 2019, 20:53] Скачать торрент Магнет ссылка
Скачать торрент
[ Размер 23.96 КБ / Просмотров 8 ]

Статус
Проверен 
 
Размер  1.39 ГБ
Приватный: Нет (DHT включён)
.torrent скачан  0
 


     Отправить личное сообщение
   
Страница 1 из 1
Показать сообщения за:  Поле сортировки  
Начать новую тему Ответить на тему


Сейчас этот форум просматривают: нет зарегистрированных пользователей и гости: 0


Вы не можете начинать темы
Вы не можете отвечать на сообщения
Вы не можете редактировать свои сообщения
Вы не можете удалять свои сообщения
Вы не можете добавлять вложения

Перейти:  
cron