Начать новую тему Ответить на тему
Статистика раздачи
Размер: 344.17 МБ | Добавлен: 26 мар 2019, 19:15 | Скачали: 0
Сидеров: 0  [0 байт/сек]    Личеров: 0  [0 байт/сек]
Пред. тема | След. тема 

Автор
Сообщение

СообщениеДобавлено: 26 мар 2019, 19:15 

Ответить с цитатой 

.
Peter LeMarc.................
.................Peter LeMarc

(CD, Album, Peter Le-Marc Fransson,
Swedish Singer/songwriter born 1958.)
.
Жанр: Rock, Soft Rock, Pop Rock
Носитель: CD
Страна-производитель диска (релиза): Sweden
Год издания: 1987
Издатель (лейбл): MNW
Номер по каталогу: MNWCD 159
Страна исполнителя (группы): Sweden
Аудиокодек: FLAC (*.flac)
Тип рипа: tracks+.cue
Битрейт аудио: lossless
Продолжительность: 01:01:57
Источник (релизер): stas64
Наличие сканов в содержимом раздачи: да - 600 dpi,
(не всё, только основное)
.
.
.
Треклист:
01 - Vagen (Later Oss Langta).
02 - Som Att Vanta Regn.
03 - Vanta Dej Mirakel!.
04 - Hall Om Mej!.
05 - (Jag Ska) Ga Hel Ur Det Har.
06 - Vi Kunde Dansa.
07 - Du Tillhor Mej.
08 - Hur Hjartat Jamt Gor Som Det Vill.
09 - Varlden Stannar Av.
10 - Borjan Pa En Lang Historia.
11 - Spokamazonen.
12 - Regnig Dag Vid Vasterhav.
13 - Under En Mane Som En Silverpeng.
14 - Ring Av Silver.


Код:
Exact Audio Copy V1.1 from 23. June 2015
Отчёт EAC об извлечении, выполненном 13. июня 2016, 10:53
Peter Le Marc / Peter Le Marc
Дисковод: PLEXTOR DVDR   PX-712A   Adapter: 8  ID: 0
Режим чтения                 : Достоверность
Использование точного потока : Да
Отключение кэша аудио        : Да
Использование указателей C2  : Нет
Коррекция смещения при чтении                     : 30
Способность читать области Lead-in и Lead-out     : Нет
Заполнение пропущенных сэмплов тишиной            : Да
Удаление блоков с тишиной в начале и конце        : Нет
При вычислениях CRC использовались нулевые сэмплы : Да
Интерфейс                                         : Установленный внешний ASPI-интерфейс
Обработка зазоров                                 : Добавлено к предыдущему треку
Выходной формат          : Пользовательский кодировщик
Выбранный битрейт        : 128 kBit/s
Качество                 : Высокий
Добавление ID3-тега      : Нет
Утилита сжатия           : C:\Program Files\Exact Audio Copy\Flac\flac.exe
Дополнительные параметры : -V -8 -T "Genre=%genre%" -T "Artist=%artist%" -T "Title=%title%" -T "Album=%albumtitle%" -T "Date=%year%" -T "Tracknumber=%tracknr%" -T "Comment=%comment%" %source%
TOC извлечённого CD
     Трек |   Старт  | Длительность | Начальный сектор | Конечный сектор
    ---------------------------------------------------------------------
       1  |  0:00.00 |    4:33.00   |           0      |      20474
       2  |  4:33.00 |    4:07.35   |       20475      |      39034
       3  |  8:40.35 |    4:49.60   |       39035      |      60769
       4  | 13:30.20 |    3:59.70   |       60770      |      78764
       5  | 17:30.15 |    5:18.10   |       78765      |     102624
       6  | 22:48.25 |    4:05.55   |      102625      |     121054
       7  | 26:54.05 |    3:30.35   |      121055      |     136839
       8  | 30:24.40 |    6:05.25   |      136840      |     164239
       9  | 36:29.65 |    4:10.45   |      164240      |     183034
      10  | 40:40.35 |    4:30.72   |      183035      |     203356
      11  | 45:11.32 |    3:10.05   |      203357      |     217611
      12  | 48:21.37 |    4:55.03   |      217612      |     239739
      13  | 53:16.40 |    3:57.65   |      239740      |     257579
      14  | 57:14.30 |    4:42.62   |      257580      |     278791
Трек  1
     Имя файла I:\MOI_RAZDACI\Peter LeMarc 1987\Peter.Le.Marc_Peter.Le.Marc_1987\01 - Vagen (Later Oss Langta).wav
     Длина предзазора  0:00:02.00
     Пиковый уровень 66.3 %
     Скорость извлечения 8.7 X
     Качество трека 100.0 %
     CRC теста 905C6182
     CRC копии 905C6182
     Трек не обнаружен в базе AccurateRip
     Копирование... OK
Трек  2
     Имя файла I:\MOI_RAZDACI\Peter LeMarc 1987\Peter.Le.Marc_Peter.Le.Marc_1987\02 - Som Att Vanta Regn.wav
     Длина предзазора  0:00:00.51
     Пиковый уровень 90.1 %
     Скорость извлечения 9.5 X
     Качество трека 100.0 %
     CRC теста E88901AD
     CRC копии E88901AD
     Трек не обнаружен в базе AccurateRip
     Копирование... OK
Трек  3
     Имя файла I:\MOI_RAZDACI\Peter LeMarc 1987\Peter.Le.Marc_Peter.Le.Marc_1987\03 - Vanta Dej Mirakel!.wav
     Длина предзазора  0:00:01.04
     Пиковый уровень 73.4 %
     Скорость извлечения 9.3 X
     Качество трека 99.9 %
     CRC теста 334A376D
     CRC копии 334A376D
     Трек не обнаружен в базе AccurateRip
     Копирование... OK
Трек  4
     Имя файла I:\MOI_RAZDACI\Peter LeMarc 1987\Peter.Le.Marc_Peter.Le.Marc_1987\04 - Hall Om Mej!.wav
     Длина предзазора  0:00:00.60
     Пиковый уровень 82.2 %
     Скорость извлечения 11.1 X
     Качество трека 100.0 %
     CRC теста 34B6DADE
     CRC копии 34B6DADE
     Трек не обнаружен в базе AccurateRip
     Копирование... OK
Трек  5
     Имя файла I:\MOI_RAZDACI\Peter LeMarc 1987\Peter.Le.Marc_Peter.Le.Marc_1987\05 - (Jag Ska) Ga Hel Ur Det Har.wav
     Длина предзазора  0:00:02.61
     Пиковый уровень 70.0 %
     Скорость извлечения 12.0 X
     Качество трека 100.0 %
     CRC теста B02DA2D5
     CRC копии B02DA2D5
     Трек не обнаружен в базе AccurateRip
     Копирование... OK
Трек  6
     Имя файла I:\MOI_RAZDACI\Peter LeMarc 1987\Peter.Le.Marc_Peter.Le.Marc_1987\06 - Vi Kunde Dansa.wav
     Длина предзазора  0:00:04.61
     Пиковый уровень 75.7 %
     Скорость извлечения 12.4 X
     Качество трека 100.0 %
     CRC теста 0CBF2169
     CRC копии 0CBF2169
     Трек не обнаружен в базе AccurateRip
     Копирование... OK
Трек  7
     Имя файла I:\MOI_RAZDACI\Peter LeMarc 1987\Peter.Le.Marc_Peter.Le.Marc_1987\07 - Du Tillhor Mej.wav
     Длина предзазора  0:00:01.51
     Пиковый уровень 72.3 %
     Скорость извлечения 10.5 X
     Качество трека 99.9 %
     CRC теста 9844761F
     CRC копии 9844761F
     Трек не обнаружен в базе AccurateRip
     Копирование... OK
Трек  8
     Имя файла I:\MOI_RAZDACI\Peter LeMarc 1987\Peter.Le.Marc_Peter.Le.Marc_1987\08 - Hur Hjartat Jamt Gor Som Det Vill.wav
     Длина предзазора  0:00:01.16
     Пиковый уровень 71.9 %
     Скорость извлечения 14.0 X
     Качество трека 100.0 %
     CRC теста 3BA06720
     CRC копии 3BA06720
     Трек не обнаружен в базе AccurateRip
     Копирование... OK
Трек  9
     Имя файла I:\MOI_RAZDACI\Peter LeMarc 1987\Peter.Le.Marc_Peter.Le.Marc_1987\09 - Varlden Stannar Av.wav
     Длина предзазора  0:00:02.29
     Пиковый уровень 80.8 %
     Скорость извлечения 14.3 X
     Качество трека 100.0 %
     CRC теста BC54A0EA
     CRC копии BC54A0EA
     Трек не обнаружен в базе AccurateRip
     Копирование... OK
Трек 10
     Имя файла I:\MOI_RAZDACI\Peter LeMarc 1987\Peter.Le.Marc_Peter.Le.Marc_1987\10 - Borjan Pa En Lang Historia.wav
     Длина предзазора  0:00:01.31
     Пиковый уровень 66.4 %
     Скорость извлечения 14.8 X
     Качество трека 100.0 %
     CRC теста 50DD4159
     CRC копии 50DD4159
     Трек не обнаружен в базе AccurateRip
     Копирование... OK
Трек 11
     Имя файла I:\MOI_RAZDACI\Peter LeMarc 1987\Peter.Le.Marc_Peter.Le.Marc_1987\11 - Spokamazonen.wav
     Длина предзазора  0:00:00.11
     Пиковый уровень 62.3 %
     Скорость извлечения 14.9 X
     Качество трека 100.0 %
     CRC теста F945D60F
     CRC копии F945D60F
     Трек не обнаружен в базе AccurateRip
     Копирование... OK
Трек 12
     Имя файла I:\MOI_RAZDACI\Peter LeMarc 1987\Peter.Le.Marc_Peter.Le.Marc_1987\12 - Regnig Dag Vid Vasterhav.wav
     Длина предзазора  0:00:01.31
     Пиковый уровень 70.7 %
     Скорость извлечения 15.8 X
     Качество трека 100.0 %
     CRC теста 85B72CAA
     CRC копии 85B72CAA
     Трек не обнаружен в базе AccurateRip
     Копирование... OK
Трек 13
     Имя файла I:\MOI_RAZDACI\Peter LeMarc 1987\Peter.Le.Marc_Peter.Le.Marc_1987\13 - Under En Mane Som En Silverpeng.wav
     Длина предзазора  0:00:01.08
     Пиковый уровень 89.8 %
     Скорость извлечения 16.0 X
     Качество трека 100.0 %
     CRC теста 80CB910B
     CRC копии 80CB910B
     Трек не обнаружен в базе AccurateRip
     Копирование... OK
Трек 14
     Имя файла I:\MOI_RAZDACI\Peter LeMarc 1987\Peter.Le.Marc_Peter.Le.Marc_1987\14 - Ring Av Silver.wav
     Длина предзазора  0:00:00.48
     Пиковый уровень 71.9 %
     Скорость извлечения 14.8 X
     Качество трека 100.0 %
     CRC теста 764EA1F3
     CRC копии 764EA1F3
     Трек не обнаружен в базе AccurateRip
     Копирование... OK
Ни одного трека нет в базе AccurateRip
Ошибок не произошло
Конец отчёта
---- CUETools DB Plugin V2.1.6
[CTDB TOCID: DAksaGHHq7yp3I6T93oAYxaR9mU-] found
Submit result: already submitted
Track | CTDB Status
  1   | (6/7) Accurately ripped
  2   | (7/7) Accurately ripped
  3   | (7/7) Accurately ripped
  4   | (7/7) Accurately ripped
  5   | (7/7) Accurately ripped
  6   | (7/7) Accurately ripped
  7   | (7/7) Accurately ripped
  8   | (7/7) Accurately ripped
  9   | (7/7) Accurately ripped
 10   | (7/7) Accurately ripped
 11   | (7/7) Accurately ripped
 12   | (7/7) Accurately ripped
 13   | (7/7) Accurately ripped
 14   | (6/7) Accurately ripped, or (1/7) differs in 1043 samples @04:42:48-04:42:49
==== Контрольная сумма отчёта 711DA5BFA0966C0B879DE839F7F15E0861D610D087FD6B400CC87375F67A3FC6 ====
Код:
REM GENRE Rock
REM DATE 1987
REM DISCID AF0E850E
REM COMMENT "ExactAudioCopy v1.1"
PERFORMER "Peter Le Marc"
TITLE "Peter Le Marc"
FILE "01 - Vagen (Later Oss Langta).wav" WAVE
  TRACK 01 AUDIO
    TITLE "Vagen (Later Oss Langta)"
    PERFORMER "Peter Le Marc"
    INDEX 01 00:00:00
  TRACK 02 AUDIO
    TITLE "Som Att Vanta Regn"
    PERFORMER "Peter Le Marc"
    INDEX 00 04:32:24
FILE "02 - Som Att Vanta Regn.wav" WAVE
    INDEX 01 00:00:00
  TRACK 03 AUDIO
    TITLE "Vanta Dej Mirakel!"
    PERFORMER "Peter Le Marc"
    INDEX 00 04:06:31
FILE "03 - Vanta Dej Mirakel!.wav" WAVE
    INDEX 01 00:00:00
  TRACK 04 AUDIO
    TITLE "Hall Om Mej!"
    PERFORMER "Peter Le Marc"
    INDEX 00 04:49:00
FILE "04 - Hall Om Mej!.wav" WAVE
    INDEX 01 00:00:00
  TRACK 05 AUDIO
    TITLE "(Jag Ska) Ga Hel Ur Det Har"
    PERFORMER "Peter Le Marc"
    INDEX 00 03:57:09
FILE "05 - (Jag Ska) Ga Hel Ur Det Har.wav" WAVE
    INDEX 01 00:00:00
  TRACK 06 AUDIO
    TITLE "Vi Kunde Dansa"
    PERFORMER "Peter Le Marc"
    INDEX 00 05:13:24
FILE "06 - Vi Kunde Dansa.wav" WAVE
    INDEX 01 00:00:00
  TRACK 07 AUDIO
    TITLE "Du Tillhor Mej"
    PERFORMER "Peter Le Marc"
    INDEX 00 04:04:04
FILE "07 - Du Tillhor Mej.wav" WAVE
    INDEX 01 00:00:00
  TRACK 08 AUDIO
    TITLE "Hur Hjartat Jamt Gor Som Det Vill"
    PERFORMER "Peter Le Marc"
    INDEX 00 03:29:19
FILE "08 - Hur Hjartat Jamt Gor Som Det Vill.wav" WAVE
    INDEX 01 00:00:00
  TRACK 09 AUDIO
    TITLE "Varlden Stannar Av"
    PERFORMER "Peter Le Marc"
    INDEX 00 06:02:71
FILE "09 - Varlden Stannar Av.wav" WAVE
    INDEX 01 00:00:00
  TRACK 10 AUDIO
    TITLE "Borjan Pa En Lang Historia"
    PERFORMER "Peter Le Marc"
    INDEX 00 04:09:14
FILE "10 - Borjan Pa En Lang Historia.wav" WAVE
    INDEX 01 00:00:00
  TRACK 11 AUDIO
    TITLE "Spokamazonen"
    PERFORMER "Peter Le Marc"
    INDEX 00 04:30:61
FILE "11 - Spokamazonen.wav" WAVE
    INDEX 01 00:00:00
  TRACK 12 AUDIO
    TITLE "Regnig Dag Vid Vasterhav"
    PERFORMER "Peter Le Marc"
    INDEX 00 03:08:49
FILE "12 - Regnig Dag Vid Vasterhav.wav" WAVE
    INDEX 01 00:00:00
  TRACK 13 AUDIO
    TITLE "Under En Mane Som En Silverpeng"
    PERFORMER "Peter Le Marc"
    INDEX 00 04:53:70
FILE "13 - Under En Mane Som En Silverpeng.wav" WAVE
    INDEX 01 00:00:00
  TRACK 14 AUDIO
    TITLE "Ring Av Silver"
    PERFORMER "Peter Le Marc"
    INDEX 00 03:57:17
FILE "14 - Ring Av Silver.wav" WAVE
    INDEX 01 00:00:00
Код:
-----------------------
DON'T MODIFY THIS FILE
-----------------------
PERFORMER: auCDtect Task Manager, ver. 1.5.1RC6 build 1.5.1.7
Copyright (c) 2008-2010 y-soft. All rights reserved
[url=http://y-soft.org]http://y-soft.org[/url]
ANALYZER: auCDtect: CD records authenticity detector, version 0.8.2
Copyright (c) 2004 Oleg Berngardt. All rights reserved.
Copyright (c) 2004 Alexander Djourik. All rights reserved.
FILE: 14 - Ring Av Silver.flac
  Size: 28758540 Hash: B0A2E24629257DEE10657D2AF27B8864 Accuracy: -m0
  Conclusion: CDDA 100%
  Signature: F89B0E48F2A35B6D3DD60F6687A5379453F98597
FILE: 13 - Under En Mane Som En Silverpeng.flac
  Size: 21496030 Hash: 3B7C360B333D7159CD47370058EB4129 Accuracy: -m0
  Conclusion: CDDA 100%
  Signature: 64F0F4EE75A313BA176182D165CC00CCEF121C44
FILE: 12 - Regnig Dag Vid Vasterhav.flac
  Size: 31326130 Hash: F6D36CC0C9BDD585DF774FCAAB3BADF5 Accuracy: -m0
  Conclusion: CDDA 100%
  Signature: 427B6221D6CA20E339BBDC79CA0109603DA67633
FILE: 11 - Spokamazonen.flac
  Size: 16741344 Hash: 8D7B56394A99957472F6FB3ADA708246 Accuracy: -m0
  Conclusion: CDDA 100%
  Signature: 933957892031F4C8B42488F0FE41FD98F395F4BB
FILE: 10 - Borjan Pa En Lang Historia.flac
  Size: 26057795 Hash: 6D59DCC5E589078A59460A0895048DCB Accuracy: -m0
  Conclusion: CDDA 100%
  Signature: F42470C9ABABD81C8FF5BCA0EF46702BB2CB45D2
FILE: 09 - Varlden Stannar Av.flac
  Size: 23802661 Hash: EBE359BE823AC1353D485EFAF1B8BAA2 Accuracy: -m0
  Conclusion: CDDA 100%
  Signature: 6562B14E3DE38BECEEF429A8D917FE00769FC819
FILE: 08 - Hur Hjartat Jamt Gor Som Det Vill.flac
  Size: 30665177 Hash: 5CCFB7DAA19423077AE6BA019E475C99 Accuracy: -m0
  Conclusion: CDDA 100%
  Signature: EE2D1DCD0F6E23E1E2019E9ED8D4561B4AF77BD2
FILE: 07 - Du Tillhor Mej.flac
  Size: 19767758 Hash: EECCFC9A81F958A87B1AAA621E35EA6D Accuracy: -m0
  Conclusion: CDDA 100%
  Signature: 6C9392A2521F35F880F59E9A9B242D0D2E10815D
FILE: 06 - Vi Kunde Dansa.flac
  Size: 24472375 Hash: FDD8E8C69FEA3C935BCA1BC7E2A1A503 Accuracy: -m0
  Conclusion: CDDA 100%
  Signature: F26455DC2E823FB002DD86DA52C43F830DBAA755
FILE: 05 - (Jag Ska) Ga Hel Ur Det Har.flac
  Size: 29012976 Hash: C833B746335679723B7506C9A0A48176 Accuracy: -m0
  Conclusion: CDDA 99%
  Signature: 71321F5DAB94A82AB4895C1F76A9F5EFBD8A4497
FILE: 04 - Hall Om Mej!.flac
  Size: 24437073 Hash: 8A99B0A32750D7007DD25A841155C85B Accuracy: -m0
  Conclusion: CDDA 100%
  Signature: A7AEEF4AFF934F9F0256698167A8F664C5772B73
FILE: 03 - Vanta Dej Mirakel!.flac
  Size: 27241521 Hash: 146BEF6CD634533A037A7B83EEDF8E0C Accuracy: -m0
  Conclusion: CDDA 99%
  Signature: 2867DDC8BCE213EAC4272F4A2D01915EC0D0A18D
FILE: 02 - Som Att Vanta Regn.flac
  Size: 22385814 Hash: C64A88FAD7FB0E94D4CE932F62580DCD Accuracy: -m0
  Conclusion: CDDA 100%
  Signature: 528C3489C7F78117B90466FFA2BE2EA039DE6610
FILE: 01 - Vagen (Later Oss Langta).flac
  Size: 28745256 Hash: 4135407C0EF7007444796B98794605B9 Accuracy: -m0
  Conclusion: CDDA 100%
  Signature: 734851F8A532DE87D822B52915322BFDE8C7172B
Правила, инструкции, FAQ!!!
Торрент  Добавлен [26 мар 2019, 19:15] Скачать торрент Магнет ссылка
Скачать торрент
[ Размер 15.13 КБ / Просмотров 3 ]

Статус
Проверен 
 
Размер  344.17 МБ
Приватный: Нет (DHT включён)
.torrent скачан  0
 


     Отправить личное сообщение
   
Страница 1 из 1
Показать сообщения за:  Поле сортировки  
Начать новую тему Ответить на тему


Сейчас этот форум просматривают: нет зарегистрированных пользователей и гости: 0


Вы не можете начинать темы
Вы не можете отвечать на сообщения
Вы не можете редактировать свои сообщения
Вы не можете удалять свои сообщения
Вы не можете добавлять вложения

Перейти:  
cron