Начать новую тему Ответить на тему
Статистика раздачи
Размер: 338.86 МБ | Добавлен: 26 мар 2019, 19:15 | Скачали: 0
Сидеров: 1  [0 байт/сек]    Личеров: 0  [0 байт/сек]
Пред. тема | След. тема 

Автор
Сообщение

СообщениеДобавлено: 26 мар 2019, 19:15 

Ответить с цитатой 

Shades Apart - Eyewitness
Жанр: Rock
Страна-производитель диска: US
Год издания диска: 1999
Издатель (лейбл): Universal Records
Cat #: UD-53249
Аудиокодек: FLAC (*.flac)
Тип рипа: tracks+.cue
Битрейт аудио: lossless
Продолжительность: 46:34
Источник (релизер): what (devilcius)
Треклист:
01. Edge Of The Century (3:22)
02. Sputnik (Watching Over You) (3:12)
03. Stranger By The Day (4:01)
04. Valentine (4:02)
05. 100 Days (3:46)
06. Chasing Daydreams (4:27)
07. Know-It-All (3:40)
08. Time Machine (4:11)
09. Second Chances (3:28)
10. One Starry Night (3:43)
11. Gabrielle (4:19)
12. Speed Of Light (4:23)
Код:
Exact Audio Copy V0.99 prebeta 5 from 4. May 2009
EAC extraction logfile from 30. October 2010, 11:34
Shades Apart / Eyewitness
Used drive  : HL-DT-STCD-RW GCE-8526B   Adapter: 1  ID: 0
Read mode               : Secure
Utilize accurate stream : Yes
Defeat audio cache      : Yes
Make use of C2 pointers : No
Read offset correction                      : 6
Overread into Lead-In and Lead-Out          : No
Fill up missing offset samples with silence : Yes
Delete leading and trailing silent blocks   : No
Null samples used in CRC calculations       : Yes
Used interface                              : Installed external ASPI interface
Gap handling                                : Appended to previous track
Used output format              : User Defined Encoder
Selected bitrate                : 320 kBit/s
Quality                         : High
Add ID3 tag                     : No
Command line compressor         : C:\Program Files\Exact Audio Copy\Flac\flac.exe
Additional command line options : -V -8 -T "artist=%a" -T "title=%t" -T "album=%g" -T "date=%y" -T "tracknumber=%n" -T "genre=%m" %s
TOC of the extracted CD
     Track |   Start  |  Length  | Start sector | End sector
    ---------------------------------------------------------
        1  |  0:00.00 |  3:22.37 |         0    |    15186
        2  |  3:22.37 |  3:12.68 |     15187    |    29654
        3  |  6:35.30 |  4:01.45 |     29655    |    47774
        4  | 10:37.00 |  4:02.62 |     47775    |    65986
        5  | 14:39.62 |  3:46.13 |     65987    |    82949
        6  | 18:26.00 |  4:27.15 |     82950    |   102989
        7  | 22:53.15 |  3:40.40 |    102990    |   119529
        8  | 26:33.55 |  4:11.20 |    119530    |   138374
        9  | 30:45.00 |  3:28.22 |    138375    |   153996
       10  | 34:13.22 |  3:43.68 |    153997    |   170789
       11  | 37:57.15 |  4:19.45 |    170790    |   190259
       12  | 42:16.60 |  4:23.25 |    190260    |   210009
Track  1
     Filename C:\EACRips\Shades Apart - 1999 - Eyewitness\01 - Edge Of The Century.wav
     Pre-gap length  0:00:02.00
     Peak level 99.8 %
     Track quality 100.0 %
     Test CRC C3A6F586
     Copy CRC C3A6F586
     Accurately ripped (confidence 14)  [FEF01686]
     Copy OK
Track  2
     Filename C:\EACRips\Shades Apart - 1999 - Eyewitness\02 - Sputnik (Watching Over You).wav
     Peak level 99.8 %
     Track quality 99.9 %
     Test CRC D61D92A3
     Copy CRC D61D92A3
     Accurately ripped (confidence 14)  [4AA3BB78]
     Copy OK
Track  3
     Filename C:\EACRips\Shades Apart - 1999 - Eyewitness\03 - Stranger By The Day.wav
     Peak level 99.8 %
     Track quality 100.0 %
     Test CRC C449E48D
     Copy CRC C449E48D
     Accurately ripped (confidence 14)  [2A38E323]
     Copy OK
Track  4
     Filename C:\EACRips\Shades Apart - 1999 - Eyewitness\04 - Valentine.wav
     Peak level 99.8 %
     Track quality 100.0 %
     Test CRC B3E3DB4A
     Copy CRC B3E3DB4A
     Accurately ripped (confidence 14)  [27EE817B]
     Copy OK
Track  5
     Filename C:\EACRips\Shades Apart - 1999 - Eyewitness\05 - 100 Days.wav
     Peak level 99.8 %
     Track quality 100.0 %
     Test CRC 52A5C554
     Copy CRC 52A5C554
     Accurately ripped (confidence 14)  [ADB39B93]
     Copy OK
Track  6
     Filename C:\EACRips\Shades Apart - 1999 - Eyewitness\06 - Chasing Daydreams.wav
     Peak level 99.8 %
     Track quality 100.0 %
     Test CRC 6D370272
     Copy CRC 6D370272
     Accurately ripped (confidence 14)  [EFDD2DF0]
     Copy OK
Track  7
     Filename C:\EACRips\Shades Apart - 1999 - Eyewitness\07 - Know-It-All.wav
     Peak level 99.8 %
     Track quality 100.0 %
     Test CRC 3DE7C213
     Copy CRC 3DE7C213
     Accurately ripped (confidence 14)  [9FBCFA61]
     Copy OK
Track  8
     Filename C:\EACRips\Shades Apart - 1999 - Eyewitness\08 - Time Machine.wav
     Peak level 99.8 %
     Track quality 100.0 %
     Test CRC 87364784
     Copy CRC 87364784
     Accurately ripped (confidence 13)  [4D83DEA8]
     Copy OK
Track  9
     Filename C:\EACRips\Shades Apart - 1999 - Eyewitness\09 - Second Chances.wav
     Peak level 99.8 %
     Track quality 100.0 %
     Test CRC A44E8E7C
     Copy CRC A44E8E7C
     Accurately ripped (confidence 14)  [F66C6E0C]
     Copy OK
Track 10
     Filename C:\EACRips\Shades Apart - 1999 - Eyewitness\10 - One Starry Night.wav
     Peak level 99.8 %
     Track quality 100.0 %
     Test CRC 5182335E
     Copy CRC 5182335E
     Accurately ripped (confidence 14)  [308F20DC]
     Copy OK
Track 11
     Filename C:\EACRips\Shades Apart - 1999 - Eyewitness\11 - Gabrielle.wav
     Peak level 99.8 %
     Track quality 100.0 %
     Test CRC 796DD512
     Copy CRC 796DD512
     Accurately ripped (confidence 14)  [15B1DB49]
     Copy OK
Track 12
     Filename C:\EACRips\Shades Apart - 1999 - Eyewitness\12 - Speed Of Light.wav
     Peak level 99.8 %
     Track quality 99.9 %
     Test CRC 8582C819
     Copy CRC 8582C819
     Accurately ripped (confidence 11)  [76654FE2]
     Copy OK
All tracks accurately ripped
No errors occurred
End of status report
Код:
REM GENRE Rock
REM DATE 1999
REM DISCID B20AF00C
REM COMMENT "ExactAudioCopy v0.99pb5"
PERFORMER "Shades Apart"
TITLE "Eyewitness"
FILE "01 - Edge Of The Century.wav" WAVE
  TRACK 01 AUDIO
    TITLE "Edge Of The Century"
    PERFORMER "Shades Apart"
    INDEX 01 00:00:00
  TRACK 02 AUDIO
    TITLE "Sputnik (Watching Over You)"
    PERFORMER "Shades Apart"
FILE "02 - Sputnik (Watching Over You).wav" WAVE
    INDEX 01 00:00:00
  TRACK 03 AUDIO
    TITLE "Stranger By The Day"
    PERFORMER "Shades Apart"
FILE "03 - Stranger By The Day.wav" WAVE
    INDEX 01 00:00:00
  TRACK 04 AUDIO
    TITLE "Valentine"
    PERFORMER "Shades Apart"
FILE "04 - Valentine.wav" WAVE
    INDEX 01 00:00:00
  TRACK 05 AUDIO
    TITLE "100 Days"
    PERFORMER "Shades Apart"
FILE "05 - 100 Days.wav" WAVE
    INDEX 01 00:00:00
  TRACK 06 AUDIO
    TITLE "Chasing Daydreams"
    PERFORMER "Shades Apart"
FILE "06 - Chasing Daydreams.wav" WAVE
    INDEX 01 00:00:00
  TRACK 07 AUDIO
    TITLE "Know-It-All"
    PERFORMER "Shades Apart"
FILE "07 - Know-It-All.wav" WAVE
    INDEX 01 00:00:00
  TRACK 08 AUDIO
    TITLE "Time Machine"
    PERFORMER "Shades Apart"
FILE "08 - Time Machine.wav" WAVE
    INDEX 01 00:00:00
  TRACK 09 AUDIO
    TITLE "Second Chances"
    PERFORMER "Shades Apart"
FILE "09 - Second Chances.wav" WAVE
    INDEX 01 00:00:00
  TRACK 10 AUDIO
    TITLE "One Starry Night"
    PERFORMER "Shades Apart"
FILE "10 - One Starry Night.wav" WAVE
    INDEX 01 00:00:00
  TRACK 11 AUDIO
    TITLE "Gabrielle"
    PERFORMER "Shades Apart"
FILE "11 - Gabrielle.wav" WAVE
    INDEX 01 00:00:00
  TRACK 12 AUDIO
    TITLE "Speed Of Light"
    PERFORMER "Shades Apart"
FILE "12 - Speed Of Light.wav" WAVE
    INDEX 01 00:00:00
Правила, инструкции, FAQ!!!
Торрент  Добавлен [26 мар 2019, 19:15] Скачать торрент Магнет ссылка
Скачать торрент
[ Размер 14.48 КБ / Просмотров 5 ]

Статус
Проверен 
 
Размер  338.86 МБ
Приватный: Нет (DHT включён)
.torrent скачан  0
 


     Отправить личное сообщение
   
Страница 1 из 1
Показать сообщения за:  Поле сортировки  
Начать новую тему Ответить на тему


Сейчас этот форум просматривают: нет зарегистрированных пользователей и гости: 0


Вы не можете начинать темы
Вы не можете отвечать на сообщения
Вы не можете редактировать свои сообщения
Вы не можете удалять свои сообщения
Вы не можете добавлять вложения

Перейти:  
cron