Начать новую тему Ответить на тему
Статистика раздачи
Размер: 272.69 МБ | Добавлен: 13 июл 2020, 05:29 | Скачали: 0
Сидеров: 0  [0 байт/сек]    Личеров: 0  [0 байт/сек]
Пред. тема | След. тема 

Автор
Сообщение

СообщениеДобавлено: 13 июл 2020, 05:29 

Ответить с цитатой 

Ph.D. / Is It Safe?
Жанр: Rock
Носитель: CD
Страна-производитель диска (релиза): Germany
Год издания: 1983
Издатель (лейбл): WEA
Номер по каталогу: 25 00501-2
Страна исполнителя (группы): England
Аудиокодек: FLAC (*.flac)
Тип рипа: image+.cue
Продолжительность: 39:18
Источник: собственный рип
Наличие сканов в содержимом раздачи: да
Треклист:
01. I Didn't Know (4:29)
02. Pretty Ladies (3:22)
03. Johnny (3:32)
04. Shotgun Romance (3:24)
05. Changing Partners (3:42)
06. No Right To Be Sad (3:57)
07. Fifth Of May (5:08)
08. No Happy Endings (4:09)
09. Beautiful Day (5:09)
10. New York City (2:26)
Код:
Exact Audio Copy V1.1 from 23. June 2015
Отчёт EAC об извлечении, выполненном 10. июля 2020, 21:46
Ph.D. / Is It Safe&
Дисковод: PIONEER DVD-RW  DVR-221L   Adapter: 1  ID: 1
Режим чтения                 : Достоверность
Использование точного потока : Да
Отключение кэша аудио        : Да
Использование указателей C2  : Нет
Коррекция смещения при чтении                     : 6
Способность читать области Lead-in и Lead-out     : Нет
Заполнение пропущенных сэмплов тишиной            : Да
Удаление блоков с тишиной в начале и конце        : Нет
При вычислениях CRC использовались нулевые сэмплы : Да
Интерфейс                                         : Встроенный Win32-интерфейс для Win NT/2000
Выходной формат          : Пользовательский кодировщик
Выбранный битрейт        : 128 kBit/s
Качество                 : Высокий
Добавление ID3-тега      : Нет
Утилита сжатия           : C:\Program Files (x86)\Exact Audio Copy\FLAC\FLAC.EXE
Дополнительные параметры : -8 -V -T "Date=%year%" -T "Genre=%genre%" %source%
TOC извлечённого CD
     Трек |   Старт  | Длительность | Начальный сектор | Конечный сектор
    ---------------------------------------------------------------------
       1  |  0:00.00 |    4:29.20   |           0      |      20194
       2  |  4:29.20 |    3:22.66   |       20195      |      35410
       3  |  7:52.11 |    3:32.19   |       35411      |      51329
       4  | 11:24.30 |    3:24.60   |       51330      |      66689
       5  | 14:49.15 |    3:42.37   |       66690      |      83376
       6  | 18:31.52 |    3:57.32   |       83377      |     101183
       7  | 22:29.09 |    5:08.06   |      101184      |     124289
       8  | 27:37.15 |    4:09.22   |      124290      |     142986
       9  | 31:46.37 |    5:09.52   |      142987      |     166213
      10  | 36:56.14 |    2:26.12   |      166214      |     177175
Характеристики диапазона извлечения и сообщения об ошибках
Выбранный диапазон
     Имя файла D:\Мусор\Ph.D. - Is It Safe - 1983.wav
     Пиковый уровень 97.8 %
     Скорость извлечения 7.3 X
     Качество диапазона 100.0 %
     CRC теста DFFF5F58
     CRC копии DFFF5F58
     Копирование... OK
Ошибок не произошло
AccurateRip: сводка
Трек  1  отсутствует в базе данных
Трек  2  отсутствует в базе данных
Трек  3  отсутствует в базе данных
Трек  4  отсутствует в базе данных
Трек  5  отсутствует в базе данных
Трек  6  отсутствует в базе данных
Трек  7  отсутствует в базе данных
Трек  8  отсутствует в базе данных
Трек  9  отсутствует в базе данных
Трек 10  отсутствует в базе данных
Ни одного трека нет в базе AccurateRip
Конец отчёта
==== Контрольная сумма отчёта A6ADE57A926079E39A8D059F2E7B9CDDEC81EA3700F2E3C340C625A6FABD1F47 ====
Код:
REM GENRE Rock
REM DATE 1983
REM DISCID 85093A0A
REM COMMENT "ExactAudioCopy v1.1"
PERFORMER "Ph.D."
TITLE "Is It Safe&"
FILE "Ph.D. - Is It Safe - 1983.flac" WAVE
  TRACK 01 AUDIO
    TITLE "I Didn't Know"
    PERFORMER "Ph.D."
    FLAGS DCP
    INDEX 01 00:00:00
  TRACK 02 AUDIO
    TITLE "Pretty Ladies"
    PERFORMER "Ph.D."
    FLAGS DCP
    INDEX 01 04:29:20
  TRACK 03 AUDIO
    TITLE "Johnny"
    PERFORMER "Ph.D."
    FLAGS DCP
    INDEX 01 07:52:11
  TRACK 04 AUDIO
    TITLE "Shotgun Romance"
    PERFORMER "Ph.D."
    FLAGS DCP
    INDEX 01 11:24:30
  TRACK 05 AUDIO
    TITLE "Changing Partners"
    PERFORMER "Ph.D."
    FLAGS DCP
    INDEX 01 14:49:15
  TRACK 06 AUDIO
    TITLE "No Right To Be Sad"
    PERFORMER "Ph.D."
    FLAGS DCP
    INDEX 01 18:31:52
  TRACK 07 AUDIO
    TITLE "Fifth Of May"
    PERFORMER "Ph.D."
    FLAGS DCP
    INDEX 01 22:29:09
  TRACK 08 AUDIO
    TITLE "No Happy Endings"
    PERFORMER "Ph.D."
    FLAGS DCP
    INDEX 01 27:37:15
  TRACK 09 AUDIO
    TITLE "Beautiful Day"
    PERFORMER "Ph.D."
    FLAGS DCP
    INDEX 01 31:46:37
  TRACK 10 AUDIO
    TITLE "New York City"
    PERFORMER "Ph.D."
    FLAGS DCP
    INDEX 01 36:56:14
Jim Diamond – Vocals
Tony Hymas – Keyboards
Simon Phillips – Drums
Правила, инструкции, FAQ!!!
Торрент  Добавлен [13 июл 2020, 05:29] Скачать торрент Магнет ссылка
Скачать торрент
[ Размер 11.59 КБ / Просмотров 5 ]

Статус
Проверен 
 
Размер  272.69 МБ
Приватный: Нет (DHT включён)
.torrent скачан  0
 


     Отправить личное сообщение
   
Страница 1 из 1
Показать сообщения за:  Поле сортировки  
Начать новую тему Ответить на тему


Сейчас этот форум просматривают: нет зарегистрированных пользователей и гости: 0


Вы не можете начинать темы
Вы не можете отвечать на сообщения
Вы не можете редактировать свои сообщения
Вы не можете удалять свои сообщения
Вы не можете добавлять вложения

Перейти:  
cron