Начать новую тему Ответить на тему
Статистика раздачи
Размер: 560.53 МБ | Добавлен: 26 мар 2019, 20:10 | Скачали: 0
Сидеров: 1  [0 байт/сек]    Личеров: 0  [0 байт/сек]
Пред. тема | След. тема 

Автор
Сообщение

СообщениеДобавлено: 26 мар 2019, 20:10 

Ответить с цитатой 

Sad Cafe - Facades - Sad Cafe
Жанр: Rock
Год выпуска диска: 2009
Производитель диска: EDSD
Аудио кодек: FLAC
Тип рипа: tracks+.cue
Происхождение рипа: из сети (H33, andipandi)
Битрейт аудио: lossless
Продолжительность: 00:48:13 + 00:41:52
1. (00:04:07) Sad Cafe - Take Me To The Future
2. (00:04:35) Sad Cafe - Nothing Left Toulouse
3. (00:04:06) Sad Cafe - Every Day Hurts
4. (00:05:02) Sad Cafe - Strange Little Girl
5. (00:04:28) Sad Cafe - Crazy Oyster
6. (00:03:15) Sad Cafe - Emptiness
7. (00:03:17) Sad Cafe - Cottage Love
8. (00:03:48) Sad Cafe - Angel
9. (00:03:54) Sad Cafe - Get Me Outta Here
10. (00:04:44) Sad Cafe - My Oh My
11. (00:03:41) Sad Cafe - I Wish This Night Would Never End (Bonus Track)
12. (00:03:16) Sad Cafe - Time Is So Hard To Find (Bonus Track)
Код:
Exact Audio Copy V0.99 prebeta 3 from 28. July 2007
EAC extraction logfile from 16. February 2010, 15:59
Sad Cafe / Facades
Used drive  : HL-DT-STDVD-RAM GSA-H20N   Adapter: 3  ID: 0
Read mode               : Secure
Utilize accurate stream : Yes
Defeat audio cache      : Yes
Make use of C2 pointers : No
Read offset correction                      : 102
Overread into Lead-In and Lead-Out          : No
Fill up missing offset samples with silence : Yes
Delete leading and trailing silent blocks   : No
Null samples used in CRC calculations       : Yes
Used interface                              : Installed external ASPI interface
Gap handling                                : Appended to previous track
Used output format : Internal WAV Routines
Sample format      : 44.100 Hz; 16 Bit; Stereo
TOC of the extracted CD
     Track |   Start  |  Length  | Start sector | End sector
    ---------------------------------------------------------
        1  |  0:00.00 |  4:07.10 |         0    |    18534
        2  |  4:07.10 |  4:35.08 |     18535    |    39167
        3  |  8:42.18 |  4:05.73 |     39168    |    57615
        4  | 12:48.16 |  5:02.20 |     57616    |    80285
        5  | 17:50.36 |  4:27.66 |     80286    |   100376
        6  | 22:18.27 |  3:15.36 |    100377    |   115037
        7  | 25:33.63 |  3:16.63 |    115038    |   129800
        8  | 28:50.51 |  3:47.41 |    129801    |   146866
        9  | 32:38.17 |  3:53.52 |    146867    |   164393
       10  | 36:31.69 |  4:43.50 |    164394    |   185668
       11  | 41:15.44 |  3:41.05 |    185669    |   202248
       12  | 44:56.49 |  3:16.35 |    202249    |   216983
Track  1
     Filename C:\Documents and Settings\Desktop\EAC\Sad Cafe\Facades\01 - Take Me To The Future.wav
     Pre-gap length  0:00:02.00
     Peak level 92.5 %
     Track quality 100.0 %
     Test CRC 251D559D
     Copy CRC 251D559D
     Accurately ripped (confidence 2)  [B32F28BE]
     Copy OK
Track  2
     Filename C:\Documents and Settings\Desktop\EAC\Sad Cafe\Facades\02 - Nothing Left Toulouse.wav
     Pre-gap length  0:00:03.54
     Peak level 99.4 %
     Track quality 100.0 %
     Test CRC DE4FD109
     Copy CRC DE4FD109
     Accurately ripped (confidence 2)  [B8C497AE]
     Copy OK
Track  3
     Filename C:\Documents and Settings\Desktop\EAC\Sad Cafe\Facades\03 - Every Day Hurts.wav
     Pre-gap length  0:00:04.61
     Peak level 63.7 %
     Track quality 100.0 %
     Test CRC 58CA0F23
     Copy CRC 58CA0F23
     Accurately ripped (confidence 2)  [3C2D5F0D]
     Copy OK
Track  4
     Filename C:\Documents and Settings\Desktop\EAC\Sad Cafe\Facades\04 - Strange Little Girl.wav
     Pre-gap length  0:00:11.27
     Peak level 86.7 %
     Track quality 100.0 %
     Test CRC DA56F31E
     Copy CRC DA56F31E
     Accurately ripped (confidence 2)  [7AE9E95C]
     Copy OK
Track  5
     Filename C:\Documents and Settings\Desktop\EAC\Sad Cafe\Facades\05 - Crazy Oyster.wav
     Pre-gap length  0:00:03.12
     Peak level 88.7 %
     Track quality 100.0 %
     Test CRC A525796D
     Copy CRC A525796D
     Accurately ripped (confidence 2)  [803729D7]
     Copy OK
Track  6
     Filename C:\Documents and Settings\Desktop\EAC\Sad Cafe\Facades\06 - Emptiness.wav
     Pre-gap length  0:00:02.64
     Peak level 99.4 %
     Track quality 100.0 %
     Test CRC 93EFDB0F
     Copy CRC 93EFDB0F
     Accurately ripped (confidence 2)  [B5CC5496]
     Copy OK
Track  7
     Filename C:\Documents and Settings\Desktop\EAC\Sad Cafe\Facades\07 - Cottage Love.wav
     Pre-gap length  0:00:04.38
     Peak level 96.0 %
     Track quality 100.0 %
     Test CRC 34B3C73C
     Copy CRC 34B3C73C
     Accurately ripped (confidence 2)  [507F988D]
     Copy OK
Track  8
     Filename C:\Documents and Settings\Desktop\EAC\Sad Cafe\Facades\08 - Angel.wav
     Pre-gap length  0:00:02.08
     Peak level 99.4 %
     Track quality 100.0 %
     Test CRC 74D0DFE9
     Copy CRC 74D0DFE9
     Accurately ripped (confidence 2)  [E868634A]
     Copy OK
Track  9
     Filename C:\Documents and Settings\Desktop\EAC\Sad Cafe\Facades\09 - Get Me Outta Here.wav
     Pre-gap length  0:00:03.73
     Peak level 78.8 %
     Track quality 100.0 %
     Test CRC EE7C4D6A
     Copy CRC EE7C4D6A
     Accurately ripped (confidence 2)  [DACFC752]
     Copy OK
Track 10
     Filename C:\Documents and Settings\Desktop\EAC\Sad Cafe\Facades\10 - My Oh My.wav
     Pre-gap length  0:00:03.57
     Peak level 72.7 %
     Track quality 100.0 %
     Test CRC ED50CCB1
     Copy CRC ED50CCB1
     Accurately ripped (confidence 2)  [71CC123B]
     Copy OK
Track 11
     Filename C:\Documents and Settings\Desktop\EAC\Sad Cafe\Facades\11 - I Wish This Night Would Never End (Bonus Track).wav
     Pre-gap length  0:00:02.73
     Peak level 87.8 %
     Track quality 100.0 %
     Test CRC D70D61CC
     Copy CRC D70D61CC
     Accurately ripped (confidence 2)  [E9F8AB72]
     Copy OK
Track 12
     Filename C:\Documents and Settings\Desktop\EAC\Sad Cafe\Facades\12 - Time Is So Hard To Find (Bonus Track).wav
     Pre-gap length  0:00:01.51
     Peak level 67.6 %
     Track quality 100.0 %
     Test CRC C8FC9EA7
     Copy CRC C8FC9EA7
     Accurately ripped (confidence 2)  [7ABAAC21]
     Copy OK
All tracks accurately ripped
No errors occurred
End of status report
REM GENRE Rock
REM DATE 2009
REM DISCID A30B4D0C
REM COMMENT "ExactAudioCopy v0.99pb3"
PERFORMER "Sad Cafe"
TITLE "Facades"
FILE "01 - Take Me To The Future.wav" WAVE
TRACK 01 AUDIO
TITLE "Take Me To The Future "
PERFORMER "Sad Cafe"
INDEX 01 00:00:00
TRACK 02 AUDIO
TITLE "Nothing Left Toulouse "
PERFORMER "Sad Cafe"
INDEX 00 04:03:31
FILE "02 - Nothing Left Toulouse.wav" WAVE
INDEX 01 00:00:00
TRACK 03 AUDIO
TITLE "Every Day Hurts "
PERFORMER "Sad Cafe"
INDEX 00 04:30:22
FILE "03 - Every Day Hurts.wav" WAVE
INDEX 01 00:00:00
TRACK 04 AUDIO
TITLE "Strange Little Girl"
PERFORMER "Sad Cafe"
INDEX 00 03:54:46
FILE "04 - Strange Little Girl.wav" WAVE
INDEX 01 00:00:00
TRACK 05 AUDIO
TITLE "Crazy Oyster "
PERFORMER "Sad Cafe"
INDEX 00 04:59:08
FILE "05 - Crazy Oyster.wav" WAVE
INDEX 01 00:00:00
TRACK 06 AUDIO
TITLE "Emptiness "
PERFORMER "Sad Cafe"
INDEX 00 04:25:02
FILE "06 - Emptiness.wav" WAVE
INDEX 01 00:00:00
TRACK 07 AUDIO
TITLE "Cottage Love "
PERFORMER "Sad Cafe"
INDEX 00 03:10:73
FILE "07 - Cottage Love.wav" WAVE
INDEX 01 00:00:00
TRACK 08 AUDIO
TITLE "Angel"
PERFORMER "Sad Cafe"
INDEX 00 03:14:55
FILE "08 - Angel.wav" WAVE
INDEX 01 00:00:00
TRACK 09 AUDIO
TITLE "Get Me Outta Here "
PERFORMER "Sad Cafe"
INDEX 00 03:43:43
FILE "09 - Get Me Outta Here.wav" WAVE
INDEX 01 00:00:00
TRACK 10 AUDIO
TITLE "My Oh My"
PERFORMER "Sad Cafe"
INDEX 00 03:49:70
FILE "10 - My Oh My.wav" WAVE
INDEX 01 00:00:00
TRACK 11 AUDIO
TITLE "I Wish This Night Would Never End (Bonus Track)"
PERFORMER "Sad Cafe"
INDEX 00 04:40:52
FILE "11 - I Wish This Night Would Never End (Bonus Track).wav" WAVE
INDEX 01 00:00:00
TRACK 12 AUDIO
TITLE "Time Is So Hard To Find (Bonus Track)"
PERFORMER "Sad Cafe"
INDEX 00 03:39:29
FILE "12 - Time Is So Hard To Find (Bonus Track).wav" WAVE
INDEX 01 00:00:00
AUDIOCHECKER v2.0 beta (build 457) - by Dester - opdester@freemail.hu
~~~~~~~~~~~~~~~~~~~~~~~~~~~~~~~~~~
Started at: lunedì, 22. 02. 2010. - 10.55.51
12 files found
01 -===- D:\Musica\Sad Cafe - Facades - Sad Cafe - 2009 FLAC\Facades\01 - Take Me To The Future.flac
Extracted successfully
Conclusion: this track is CDDA with probability 100%
Tempfile successfully deleted.
02 -===- D:\Musica\Sad Cafe - Facades - Sad Cafe - 2009 FLAC\Facades\02 - Nothing Left Toulouse.flac
Extracted successfully
Conclusion: this track is CDDA with probability 100%
Tempfile successfully deleted.
03 -===- D:\Musica\Sad Cafe - Facades - Sad Cafe - 2009 FLAC\Facades\03 - Every Day Hurts.flac
Extracted successfully
Conclusion: this track is CDDA with probability 100%
Tempfile successfully deleted.
04 -===- D:\Musica\Sad Cafe - Facades - Sad Cafe - 2009 FLAC\Facades\04 - Strange Little Girl.flac
Extracted successfully
Conclusion: this track is CDDA with probability 100%
Tempfile successfully deleted.
05 -===- D:\Musica\Sad Cafe - Facades - Sad Cafe - 2009 FLAC\Facades\05 - Crazy Oyster.flac
Extracted successfully
Conclusion: this track is CDDA with probability 100%
Tempfile successfully deleted.
06 -===- D:\Musica\Sad Cafe - Facades - Sad Cafe - 2009 FLAC\Facades\06 - Emptiness.flac
Extracted successfully
Conclusion: this track is CDDA with probability 100%
Tempfile successfully deleted.
07 -===- D:\Musica\Sad Cafe - Facades - Sad Cafe - 2009 FLAC\Facades\07 - Cottage Love.flac
Extracted successfully
Conclusion: this track is CDDA with probability 100%
Tempfile successfully deleted.
08 -===- D:\Musica\Sad Cafe - Facades - Sad Cafe - 2009 FLAC\Facades\08 - Angel.flac
Extracted successfully
Conclusion: this track is CDDA with probability 100%
Tempfile successfully deleted.
09 -===- D:\Musica\Sad Cafe - Facades - Sad Cafe - 2009 FLAC\Facades\09 - Get Me Outta Here.flac
Extracted successfully
Conclusion: this track is CDDA with probability 100%
Tempfile successfully deleted.
10 -===- D:\Musica\Sad Cafe - Facades - Sad Cafe - 2009 FLAC\Facades\10 - My Oh My.flac
Extracted successfully
Conclusion: this track is MPEG with probability 95%
Tempfile successfully deleted.
11 -===- D:\Musica\Sad Cafe - Facades - Sad Cafe - 2009 FLAC\Facades\11 - I Wish This Night Would Never End (Bonus Track).flac
Extracted successfully
Conclusion: this track is CDDA with probability 100%
Tempfile successfully deleted.
12 -===- D:\Musica\Sad Cafe - Facades - Sad Cafe - 2009 FLAC\Facades\12 - Time Is So Hard To Find (Bonus Track).flac
Extracted successfully
Conclusion: this track is CDDA with probability 100%
Tempfile successfully deleted.
Finished at: lunedì, 22. 02. 2010. - 11.00.15 (operation time: 0.04.23)
1. (00:05:04) Sad Cafe - La-Di-Da
2. (00:04:54) Sad Cafe - Digital Daydream Blues
3. (00:04:36) Sad Cafe - What Am I Gonna Do
4. (00:06:21) Sad Cafe - Keeping It From The Troops
5. (00:04:16) Sad Cafe - Love Today
6. (00:03:57) Sad Cafe - Losin' You
7. (00:04:11) Sad Cafe - Dreamin'
8. (00:03:59) Sad Cafe - No Way
9. (00:04:35) Sad Cafe - I'm In Love Again
Код:
Exact Audio Copy V0.99 prebeta 3 from 28. July 2007
EAC extraction logfile from 16. February 2010, 17:03
Sad Cafe / Sad Cafe
Used drive  : HL-DT-STDVD-RAM GSA-H20N   Adapter: 3  ID: 0
Read mode               : Secure
Utilize accurate stream : Yes
Defeat audio cache      : Yes
Make use of C2 pointers : No
Read offset correction                      : 102
Overread into Lead-In and Lead-Out          : No
Fill up missing offset samples with silence : Yes
Delete leading and trailing silent blocks   : No
Null samples used in CRC calculations       : Yes
Used interface                              : Installed external ASPI interface
Gap handling                                : Appended to previous track
Used output format : Internal WAV Routines
Sample format      : 44.100 Hz; 16 Bit; Stereo
TOC of the extracted CD
     Track |   Start  |  Length  | Start sector | End sector
    ---------------------------------------------------------
        1  |  0:00.00 |  5:04.17 |         0    |    22816
        2  |  5:04.17 |  4:53.71 |     22817    |    44862
        3  |  9:58.13 |  4:35.49 |     44863    |    65536
        4  | 14:33.62 |  6:20.60 |     65537    |    94096
        5  | 20:54.47 |  4:15.39 |     94097    |   113260
        6  | 25:10.11 |  3:57.17 |    113261    |   131052
        7  | 29:07.28 |  4:11.37 |    131053    |   149914
        8  | 33:18.65 |  3:59.03 |    149915    |   167842
        9  | 37:17.68 |  4:34.74 |    167843    |   188466
Track  1
     Filename C:\Documents and Settings\Desktop\EAC\Sad Cafe\Sad Cafe\01 - La-Di-Da.wav
     Pre-gap length  0:00:02.00
     Peak level 91.8 %
     Track quality 100.0 %
     Test CRC F7123A04
     Copy CRC F7123A04
     Accurately ripped (confidence 2)  [7343A4C5]
     Copy OK
Track  2
     Filename C:\Documents and Settings\Desktop\EAC\Sad Cafe\Sad Cafe\02 - Digital Daydream Blues.wav
     Pre-gap length  0:00:04.04
     Peak level 99.4 %
     Track quality 100.0 %
     Test CRC 08F0D2C5
     Copy CRC 08F0D2C5
     Accurately ripped (confidence 2)  [7C580088]
     Copy OK
Track  3
     Filename C:\Documents and Settings\Desktop\EAC\Sad Cafe\Sad Cafe\03 - What Am I Gonna Do.wav
     Pre-gap length  0:00:00.39
     Peak level 84.1 %
     Track quality 100.0 %
     Test CRC 89FA11DA
     Copy CRC 89FA11DA
     Accurately ripped (confidence 2)  [889D9150]
     Copy OK
Track  4
     Filename C:\Documents and Settings\Desktop\EAC\Sad Cafe\Sad Cafe\04 - Keeping It From The Troops.wav
     Peak level 78.2 %
     Track quality 100.0 %
     Test CRC 15824BC9
     Copy CRC 15824BC9
     Accurately ripped (confidence 2)  [926DF419]
     Copy OK
Track  5
     Filename C:\Documents and Settings\Desktop\EAC\Sad Cafe\Sad Cafe\05 - Love Today.wav
     Pre-gap length  0:00:05.15
     Peak level 72.3 %
     Track quality 100.0 %
     Test CRC EC3BCF87
     Copy CRC EC3BCF87
     Accurately ripped (confidence 2)  [9486E248]
     Copy OK
Track  6
     Filename C:\Documents and Settings\Desktop\EAC\Sad Cafe\Sad Cafe\06 - Losin' You.wav
     Pre-gap length  0:00:04.59
     Peak level 78.0 %
     Track quality 100.0 %
     Test CRC 0C5D2F3D
     Copy CRC 0C5D2F3D
     Accurately ripped (confidence 2)  [21DB6BB4]
     Copy OK
Track  7
     Filename C:\Documents and Settings\Desktop\EAC\Sad Cafe\Sad Cafe\07 - Dreamin'.wav
     Pre-gap length  0:00:06.70
     Peak level 75.4 %
     Track quality 100.0 %
     Test CRC DBEA7B4C
     Copy CRC DBEA7B4C
     Accurately ripped (confidence 2)  [63487448]
     Copy OK
Track  8
     Filename C:\Documents and Settings\Desktop\EAC\Sad Cafe\Sad Cafe\08 - No Favours - No Way.wav
     Pre-gap length  0:00:02.35
     Peak level 71.5 %
     Track quality 100.0 %
     Test CRC 6CA9E030
     Copy CRC 6CA9E030
     Accurately ripped (confidence 2)  [44BE1B23]
     Copy OK
Track  9
     Filename C:\Documents and Settings\Desktop\EAC\Sad Cafe\Sad Cafe\09 - I'm In Love Again.wav
     Pre-gap length  0:00:05.10
     Peak level 80.1 %
     Track quality 100.0 %
     Test CRC FE98BA54
     Copy CRC FE98BA54
     Accurately ripped (confidence 2)  [6844B586]
     Copy OK
All tracks accurately ripped
No errors occurred
End of status report
REM GENRE Rock
REM DATE 2009
REM DISCID 6309D009
REM COMMENT "ExactAudioCopy v0.99pb3"
PERFORMER "Sad Cafe"
TITLE "Sad Cafe"
FILE "01 - La-Di-Da.wav" WAVE
TRACK 01 AUDIO
TITLE "La-Di-Da "
PERFORMER "Sad Cafe"
INDEX 01 00:00:00
TRACK 02 AUDIO
TITLE "Digital Daydream Blues "
PERFORMER "Sad Cafe"
INDEX 00 05:00:13
FILE "02 - Digital Daydream Blues.wav" WAVE
INDEX 01 00:00:00
TRACK 03 AUDIO
TITLE "What Am I Gonna Do"
PERFORMER "Sad Cafe"
INDEX 00 04:53:32
FILE "03 - What Am I Gonna Do.wav" WAVE
INDEX 01 00:00:00
FILE "04 - Keeping It From The Troops.wav" WAVE
TRACK 04 AUDIO
TITLE "Keeping It From The Troops "
PERFORMER "Sad Cafe"
INDEX 01 00:00:00
TRACK 05 AUDIO
TITLE "Love Today"
PERFORMER "Sad Cafe"
INDEX 00 06:15:45
FILE "05 - Love Today.wav" WAVE
INDEX 01 00:00:00
TRACK 06 AUDIO
TITLE "Losin' You "
PERFORMER "Sad Cafe"
INDEX 00 04:10:55
FILE "06 - Losin' You.wav" WAVE
INDEX 01 00:00:00
TRACK 07 AUDIO
TITLE "Dreamin' "
PERFORMER "Sad Cafe"
INDEX 00 03:50:22
FILE "07 - Dreamin'.wav" WAVE
INDEX 01 00:00:00
TRACK 08 AUDIO
TITLE "No Favours - No Way"
PERFORMER "Sad Cafe"
INDEX 00 04:09:02
FILE "08 - No Favours - No Way.wav" WAVE
INDEX 01 00:00:00
TRACK 09 AUDIO
TITLE "I'm In Love Again"
PERFORMER "Sad Cafe"
INDEX 00 03:53:68
FILE "09 - I'm In Love Again.wav" WAVE
INDEX 01 00:00:00
AUDIOCHECKER v2.0 beta (build 457) - by Dester - opdester@freemail.hu
~~~~~~~~~~~~~~~~~~~~~~~~~~~~~~~~~~
Started at: lunedì, 22. 02. 2010. - 11.02.30
9 files found
1 -===- D:\Musica\Sad Cafe - Facades - Sad Cafe - 2009 FLAC\Sad Cafe\01 - La-Di-Da.flac
Extracted successfully
Conclusion: this track is CDDA with probability 100%
Tempfile successfully deleted.
2 -===- D:\Musica\Sad Cafe - Facades - Sad Cafe - 2009 FLAC\Sad Cafe\02 - Digital Daydream Blues.flac
Extracted successfully
Conclusion: this track is CDDA with probability 100%
Tempfile successfully deleted.
3 -===- D:\Musica\Sad Cafe - Facades - Sad Cafe - 2009 FLAC\Sad Cafe\03 - What Am I Gonna Do.flac
Extracted successfully
Conclusion: this track is CDDA with probability 100%
Tempfile successfully deleted.
4 -===- D:\Musica\Sad Cafe - Facades - Sad Cafe - 2009 FLAC\Sad Cafe\04 - Keeping It From The Troops.flac
Extracted successfully
Conclusion: this track is CDDA with probability 100%
Tempfile successfully deleted.
5 -===- D:\Musica\Sad Cafe - Facades - Sad Cafe - 2009 FLAC\Sad Cafe\05 - Love Today.flac
Extracted successfully
Conclusion: this track is CDDA with probability 100%
Tempfile successfully deleted.
6 -===- D:\Musica\Sad Cafe - Facades - Sad Cafe - 2009 FLAC\Sad Cafe\06 - Losin' You.flac
Extracted successfully
Conclusion: this track is CDDA with probability 100%
Tempfile successfully deleted.
7 -===- D:\Musica\Sad Cafe - Facades - Sad Cafe - 2009 FLAC\Sad Cafe\07 - Dreamin'.flac
Extracted successfully
Conclusion: this track is CDDA with probability 100%
Tempfile successfully deleted.
8 -===- D:\Musica\Sad Cafe - Facades - Sad Cafe - 2009 FLAC\Sad Cafe\08 - No Favours - No Way.flac
Extracted successfully
Conclusion: this track is CDDA with probability 100%
Tempfile successfully deleted.
9 -===- D:\Musica\Sad Cafe - Facades - Sad Cafe - 2009 FLAC\Sad Cafe\09 - I'm In Love Again.flac
Extracted successfully
Conclusion: this track is CDDA with probability 100%
Tempfile successfully deleted.
Finished at: lunedì, 22. 02. 2010. - 11.06.30 (operation time: 0.04.00)
Правила, инструкции, FAQ!!!
Торрент  Добавлен [26 мар 2019, 20:10] Скачать торрент Магнет ссылка
Скачать торрент
[ Размер 13.43 КБ / Просмотров 0 ]

Статус
Проверен 
 
Размер  560.53 МБ
Приватный: Нет (DHT включён)
.torrent скачан  0
 


     Отправить личное сообщение
   
Страница 1 из 1
Показать сообщения за:  Поле сортировки  
Начать новую тему Ответить на тему


Сейчас этот форум просматривают: нет зарегистрированных пользователей и гости: 0


Вы не можете начинать темы
Вы не можете отвечать на сообщения
Вы не можете редактировать свои сообщения
Вы не можете удалять свои сообщения
Вы не можете добавлять вложения

Перейти:  
cron