Начать новую тему Ответить на тему
Статистика раздачи
Размер: 471.25 МБ | Добавлен: 26 мар 2019, 19:46 | Скачали: 1
Сидеров: 5  [0 байт/сек]    Личеров: 1  [0 байт/сек]
Пред. тема | След. тема 

Автор
Сообщение

СообщениеДобавлено: 26 мар 2019, 19:46 

Ответить с цитатой 

Marie Fredriksson - Den Standiga Resan
Страна: Sweden
Жанр: Rock
Год выпуска: 1992
Формат: APE (image + .cue)
Битрейт аудио: lossless
Продолжительность: 1:19:23
Трэклист:
1. Intro (0:48)
2. Det regnar igen (4:43)
3. Sa stilla sa langsamt (5:41)
4. Den standiga resan (4:16)
5. Sa lange det lyser mittemot (5:17)
6. Dar isen ar som tunnast (4:27)
7. Medan tiden ar inne (3:45)
8. Ett enda liv (4:52)
9. Tid for tystnad (3:54)
10. Det jag verkligen ville (3:41)
11. Den dar novemberdan (4:42)
12. Vem tror du att du ar? (5:22)
13. Genom ett krossat fonster (2:21)
14. Mellan sommar och host (4:20)
15. Outro (0:48)
16. Till sist (2:22)
17. Sparvoga (4:10)
18. Ann Katrin, farval (4:48)
19. Felicia - adjo (4:29)
20. Veronica (4:15)
Доп. информация:
Exact Audio Copy V0.99 prebeta 3 from 28. July 2007
Отчёт EAC об извлечении, выполненном 10. марта 2008, 23:33
Marie Fredriksson / Den Standiga Resan
Дисковод: HL-DT-STDVDRAM GSA-4163B Adapter: 5 ID: 0
Режим чтения : Достоверность
Использование точного потока : Да
Отключение кэша аудио : Да
Использование указателей C2 : Нет
Коррекция смещения при чтении : 667
Способность читать области Lead-in и Lead-out : Нет
Заполнение пропущенных сэмплов тишиной : Да
Удаление блоков с тишиной в начале и конце : Нет
При вычислениях CRC использовались нулевые сэмплы : Да
Интерфейс : Встроенный Win32-интерфейс для Win NT/2000
Выходной формат : Внутренние WAV-операции
Формат сэмплов : 44.100 Гц; 16 бит; стерео
TOC извлечённого CD
Трек | Старт | Длительность | Начальный сектор | Конечный сектор
---------------------------------------------------------------------
1 | 0:00.00 | 0:48.65 | 0 | 3664
2 | 0:48.65 | 4:42.46 | 3665 | 24860
3 | 5:31.36 | 5:40.61 | 24861 | 50421
4 | 11:12.22 | 4:15.65 | 50422 | 69611
5 | 15:28.12 | 5:16.66 | 69612 | 93377
6 | 20:45.03 | 4:27.16 | 93378 | 113418
7 | 25:12.19 | 3:45.55 | 113419 | 130348
8 | 28:57.74 | 4:51.57 | 130349 | 152230
9 | 33:49.56 | 3:53.61 | 152231 | 169766
10 | 37:43.42 | 3:40.67 | 169767 | 186333
11 | 41:24.34 | 4:41.63 | 186334 | 207471
12 | 46:06.22 | 5:22.29 | 207472 | 231650
13 | 51:28.51 | 2:20.43 | 231651 | 242193
14 | 53:49.19 | 4:19.70 | 242194 | 261688
15 | 58:09.14 | 0:48.20 | 261689 | 265308
16 | 58:57.34 | 2:41.52 | 265309 | 277435
17 | 61:39.11 | 4:09.72 | 277436 | 296182
18 | 65:49.08 | 4:49.48 | 296183 | 317905
19 | 70:38.56 | 4:28.51 | 317906 | 338056
20 | 75:07.32 | 4:15.10 | 338057 | 357191
Характеристики диапазона извлечения и сообщения об ошибках
Выбранный диапазон
Имя файла E:\Imp\Marie Fredriksson\2002 - Karlekens Guld\Disc 4 - Den Standiga Resan.wav
Пиковый уровень 98.8 %
Качество диапазона 100.0 %
CRC копии 1F00BBE6
Копирование... OK
Ошибок не произошло
AccurateRip: сводка
Трек 1 точное извлечение (доверие 1) [1A07361D]
Трек 2 точное извлечение (доверие 1) [5102FDA6]
Трек 3 точное извлечение (доверие 1) [94723963]
Трек 4 точное извлечение (доверие 1) [2EDAB71B]
Трек 5 точное извлечение (доверие 1) [7F9F5613]
Трек 6 точное извлечение (доверие 1) [E58AC96D]
Трек 7 точное извлечение (доверие 1) [362B4F9E]
Трек 8 точное извлечение (доверие 1) [0CB47A6E]
Трек 9 точное извлечение (доверие 1) [9FE483DF]
Трек 10 точное извлечение (доверие 1) [15E87DF7]
Трек 11 точное извлечение (доверие 1) [DEF77D0F]
Трек 12 точное извлечение (доверие 1) [845434A2]
Трек 13 точное извлечение (доверие 1) [80C6E0DA]
Трек 14 точное извлечение (доверие 1) [2B1D42AB]
Трек 15 точное извлечение (доверие 1) [9AFA43FC]
Трек 16 точное извлечение (доверие 1) [DCD071D2]
Трек 17 точное извлечение (доверие 1) [5DA014F5]
Трек 18 точное извлечение (доверие 1) [9899A6AF]
Трек 19 точное извлечение (доверие 1) [4B7F5012]
Трек 20 точное извлечение (доверие 1) [51B37031]
Все треки извлечены точно
Конец отчёта
#777
Диск оцифрован из коробки Karlekens Guld
и прошу не ругать за низкий upload, выше его сделать я не могу
Правила, инструкции, FAQ!!!
Торрент  Добавлен [26 мар 2019, 19:46] Скачать торрент Магнет ссылка
Скачать торрент
[ Размер 19.02 КБ / Просмотров 7 ]

Статус
Проверен 
 
Размер  471.25 МБ
Приватный: Нет (DHT включён)
.torrent скачан  1
 


     Отправить личное сообщение
   
Страница 1 из 1
Показать сообщения за:  Поле сортировки  
Начать новую тему Ответить на тему


Сейчас этот форум просматривают: нет зарегистрированных пользователей и гости: 0


Вы не можете начинать темы
Вы не можете отвечать на сообщения
Вы не можете редактировать свои сообщения
Вы не можете удалять свои сообщения
Вы не можете добавлять вложения

Перейти:  
cron