Начать новую тему Ответить на тему
Статистика раздачи
Размер: 616.43 МБ | Добавлен: 26 мар 2019, 20:11 | Скачали: 0
Сидеров: 0  [0 байт/сек]    Личеров: 1  [0 байт/сек]
Пред. тема | След. тема 

Автор
Сообщение

СообщениеДобавлено: 26 мар 2019, 20:11 

Ответить с цитатой 

Cliff Richard – Essential Early Recordings
Жанр: Rock'n'Roll/Pop
Год выпуска диска: 2010
Производитель диска: Czech Republic
Аудио кодек: FLAC
Тип рипа: image+.cue
Битрейт аудио: lossless
Продолжительность:
CD1 49:17
CD2 48:08
Digitally remastered compilation
Трэклист:
CD 1:
01. Livin' Doll
02. High Class Baby
03. Livin' Lovin' Doll
04. Steady With You
05. My Feet Hit The Ground
06. Apron Strings
07. My Babe
08. Down The Line
09. I Got A Feeling
10. Jet Black
11. Baby I Don't Care
12. Donna
13. Move It
14. Ready Teddy
15. Too Much
16. Don't Bug Me Baby
17. Driftin'
18. That'll Be The Day
19. Be-Bop-a-Lula
20. Danny
21. Whole Lotta Shakin' Goin' On
CD 2:
01. Travellin' Light
02. Dynamite
03. Mean Streak
04. Never Mind
05. Schoolboy Crush
06. Blue Suede Shoes
07. The Snake And The Bookworm
08. I Gotta Know
09. Here Comes Summer
10. I'll String Along With You
11. Embraceable You
12. As Time Goes By
13. The Touch Of Your Lips
14. Twenty Flight Rock
15. Pointed Toe Shoes
16. Mean Woman Blues
17. I'm Walkin'
18. I Don't Know Why
19. Little Things Mean A Lot
20. Somewhere Along The Way
21. That's My Desire
Exact Audio Copy V0.99 prebeta 5 from 4. May 2009
EAC extraction logfile from 25. April 2010, 16:38
Cliff Richard / Essential Early Recordings CD1
Used drive : Optiarc DVD RW AD-7173A Adapter: 1 ID: 1
Read mode : Secure
Utilize accurate stream : Yes
Defeat audio cache : Yes
Make use of C2 pointers : No
Read offset correction : 48
Overread into Lead-In and Lead-Out : No
Fill up missing offset samples with silence : Yes
Delete leading and trailing silent blocks : No
Null samples used in CRC calculations : Yes
Used interface : Native Win32 interface for Win NT & 2000
Used output format : Internal WAV Routines
Sample format : 44.100 Hz; 16 Bit; Stereo
TOC of the extracted CD
Track | Start | Length | Start sector | End sector
---------------------------------------------------------
1 | 0:00.00 | 2:40.32 | 0 | 12031
2 | 2:40.32 | 2:10.56 | 12032 | 21837
3 | 4:51.13 | 2:08.63 | 21838 | 31500
4 | 7:00.01 | 2:21.59 | 31501 | 42134
5 | 9:21.60 | 2:03.18 | 42135 | 51377
6 | 11:25.03 | 2:38.28 | 51378 | 63255
7 | 14:03.31 | 2:20.02 | 63256 | 73757
8 | 16:23.33 | 1:59.42 | 73758 | 82724
9 | 18:23.00 | 1:48.04 | 82725 | 90828
10 | 20:11.04 | 2:13.04 | 90829 | 100807
11 | 22:24.08 | 2:08.15 | 100808 | 110422
12 | 24:32.23 | 3:06.47 | 110423 | 124419
13 | 27:38.70 | 2:15.13 | 124420 | 134557
14 | 29:54.08 | 1:47.11 | 134558 | 142593
15 | 31:41.19 | 2:15.45 | 142594 | 152763
16 | 33:56.64 | 2:16.05 | 152764 | 162968
17 | 36:12.69 | 2:46.55 | 162969 | 175473
18 | 38:59.49 | 2:07.57 | 175474 | 185055
19 | 41:07.31 | 2:14.73 | 185056 | 195178
20 | 43:22.29 | 2:53.61 | 195179 | 208214
21 | 46:16.15 | 3:01.30 | 208215 | 221819
Range status and errors
Selected range
Filename F:\AVAXHOME\Cliff Richard - Essential Early Recordings (2010)\Cliff Richard - Essential Early Recordings CD1.wav
Peak level 94.3 %
Range quality 99.9 %
Copy CRC 9FEC84BB
Copy OK
No errors occurred
AccurateRip summary
Track 1 not present in database
Track 2 not present in database
Track 3 not present in database
Track 4 not present in database
Track 5 not present in database
Track 6 not present in database
Track 7 not present in database
Track 8 not present in database
Track 9 not present in database
Track 10 not present in database
Track 11 not present in database
Track 12 not present in database
Track 13 not present in database
Track 14 not present in database
Track 15 not present in database
Track 16 not present in database
Track 17 not present in database
Track 18 not present in database
Track 19 not present in database
Track 20 not present in database
Track 21 not present in database
None of the tracks are present in the AccurateRip database
End of status report
Exact Audio Copy V0.99 prebeta 5 from 4. May 2009
EAC extraction logfile from 25. April 2010, 17:01
Cliff Richard / Essential Early Recordings CD2
Used drive : Optiarc DVD RW AD-7173A Adapter: 1 ID: 0
Read mode : Secure
Utilize accurate stream : Yes
Defeat audio cache : Yes
Make use of C2 pointers : No
Read offset correction : 48
Overread into Lead-In and Lead-Out : No
Fill up missing offset samples with silence : Yes
Delete leading and trailing silent blocks : No
Null samples used in CRC calculations : Yes
Used interface : Native Win32 interface for Win NT & 2000
Used output format : Internal WAV Routines
Sample format : 44.100 Hz; 16 Bit; Stereo
TOC of the extracted CD
Track | Start | Length | Start sector | End sector
---------------------------------------------------------
1 | 0:00.00 | 2:39.52 | 0 | 11976
2 | 2:39.52 | 1:57.59 | 11977 | 20810
3 | 4:37.36 | 2:02.67 | 20811 | 30027
4 | 6:40.28 | 2:03.29 | 30028 | 39281
5 | 8:43.57 | 2:32.51 | 39282 | 50732
6 | 11:16.33 | 1:47.13 | 50733 | 58770
7 | 13:03.46 | 2:13.52 | 58771 | 68797
8 | 15:17.23 | 2:31.35 | 68798 | 80157
9 | 17:48.58 | 2:18.28 | 80158 | 90535
10 | 20:07.11 | 2:22.30 | 90536 | 101215
11 | 22:29.41 | 2:39.68 | 101216 | 113208
12 | 25:09.34 | 2:28.22 | 113209 | 124330
13 | 27:37.56 | 2:48.54 | 124331 | 136984
14 | 30:26.35 | 1:45.52 | 136985 | 144911
15 | 32:12.12 | 1:53.29 | 144912 | 153415
16 | 34:05.41 | 2:19.61 | 153416 | 163901
17 | 36:25.27 | 1:50.73 | 163902 | 172224
18 | 38:16.25 | 1:58.62 | 172225 | 181136
19 | 40:15.12 | 2:34.71 | 181137 | 192757
20 | 42:50.08 | 2:40.22 | 192758 | 204779
21 | 45:30.30 | 2:37.70 | 204780 | 216624
Range status and errors
Selected range
Filename F:\AVAXHOME\Cliff Richard - Essential Early Recordings (2010)\Cliff Richard - Essential Early Recordings CD2.wav
Peak level 94.3 %
Range quality 99.9 %
Copy CRC D833C63A
Copy OK
No errors occurred
AccurateRip summary
Track 1 not present in database
Track 2 not present in database
Track 3 not present in database
Track 4 not present in database
Track 5 not present in database
Track 6 not present in database
Track 7 not present in database
Track 8 not present in database
Track 9 not present in database
Track 10 not present in database
Track 11 not present in database
Track 12 not present in database
Track 13 not present in database
Track 14 not present in database
Track 15 not present in database
Track 16 not present in database
Track 17 not present in database
Track 18 not present in database
Track 19 not present in database
Track 20 not present in database
Track 21 not present in database
None of the tracks are present in the AccurateRip database
End of status report
Авакс. Автор рипа janwal46
Правила, инструкции, FAQ!!!
Торрент  Добавлен [26 мар 2019, 20:11] Скачать торрент Магнет ссылка
Скачать торрент
[ Размер 13.62 КБ / Просмотров 2 ]

Статус
Проверен 
 
Размер  616.43 МБ
Приватный: Нет (DHT включён)
.torrent скачан  0
 


     Отправить личное сообщение
   
Страница 1 из 1
Показать сообщения за:  Поле сортировки  
Начать новую тему Ответить на тему


Сейчас этот форум просматривают: нет зарегистрированных пользователей и гости: 0


Вы не можете начинать темы
Вы не можете отвечать на сообщения
Вы не можете редактировать свои сообщения
Вы не можете удалять свои сообщения
Вы не можете добавлять вложения

Перейти:  
cron