Начать новую тему Ответить на тему
Статистика раздачи
Размер: 404 МБ | Добавлен: 26 мар 2019, 20:34 | Скачали: 1
Сидеров: 2  [0 байт/сек]    Личеров: 2  [0 байт/сек]
Пред. тема | След. тема 

Автор
Сообщение

СообщениеДобавлено: 26 мар 2019, 20:34 

Ответить с цитатой 

Cliff Richard and The Shadows - Reunited (50thAnniversary)
Жанр: Rock'n'Roll & Pop
Год выпуска диска: 2009
Аудио кодек: APE
Тип рипа: image+.cue
Битрейт аудио: lossless
Продолжительность: 1:00:59
Трэклист:
01. I Could Easily Fall (In Love With You)
02. The Young Ones
03. Move It
04. Living Doll
05. Bachelor Boy
06. Nine Times Out Of Ten
07. C'mon Everybody
08. Travellin' Light
09. It'll Be Me
10. In The Country
11. On The Beach
12. The Next Time
13. Please Don't Tease
14. Sea Cruise
15. Willie And The Hand Jive
16. Summer Holiday
17. Do You Wanna Dance
18. Don't Talk To Him
19. Time Drags By
20. Gee Whizz It's You
21. Lucky Lips
22. Singing The Blues.
Доп. информация:
Код:
Exact Audio Copy V0.99 prebeta 4 from 23. January 2008
Отчёт EAC об извлечении, выполненном 29. октября 2009, 0:04
Cliff Richard and The Shadows / Reunited 50th Anniversary
Дисковод: HL-DT-STDVDRAM GSA-H42N   Adapter: 1  ID: 0
Режим чтения                 : Достоверность
Использование точного потока : Да
Отключение кэша аудио        : Да
Использование указателей C2  : Нет
Коррекция смещения при чтении                     : 667
Способность читать области Lead-in и Lead-out     : Нет
Заполнение пропущенных сэмплов тишиной            : Да
Удаление блоков с тишиной в начале и конце        : Нет
При вычислениях CRC использовались нулевые сэмплы : Да
Интерфейс                                         : Установленный внешний ASPI-интерфейс
Выходной формат : Monkey's Audio Lossless Encoder v3.99 DLL
Формат сэмплов  : High Lossless Compression
TOC извлечённого CD
     Трек |   Старт  | Длительность | Начальный сектор | Конечный сектор
    ---------------------------------------------------------------------
       1  |  0:00.00 |    3:02.39   |           0      |      13688
       2  |  3:02.39 |    3:12.23   |       13689      |      28111
       3  |  6:14.62 |    2:51.73   |       28112      |      41009
       4  |  9:06.60 |    2:42.08   |       41010      |      53167
       5  | 11:48.68 |    2:08.37   |       53168      |      62804
       6  | 13:57.30 |    2:45.26   |       62805      |      75205
       7  | 16:42.56 |    2:55.10   |       75206      |      88340
       8  | 19:37.66 |    2:58.68   |       88341      |     101758
       9  | 22:36.59 |    1:56.63   |      101759      |     110521
      10  | 24:33.47 |    2:52.37   |      110522      |     123458
      11  | 27:26.09 |    2:32.18   |      123459      |     134876
      12  | 29:58.27 |    2:54.72   |      134877      |     147998
      13  | 32:53.24 |    2:59.19   |      147999      |     161442
      14  | 35:52.43 |    3:06.34   |      161443      |     175426
      15  | 38:59.02 |    2:42.55   |      175427      |     187631
      16  | 41:41.57 |    2:21.17   |      187632      |     198223
      17  | 44:02.74 |    3:10.21   |      198224      |     212494
      18  | 47:13.20 |    3:04.36   |      212495      |     226330
      19  | 50:17.56 |    2:37.24   |      226331      |     238129
      20  | 52:55.05 |    2:16.12   |      238130      |     248341
      21  | 55:11.17 |    2:45.23   |      248342      |     260739
      22  | 57:56.40 |    3:02.66   |      260740      |     274455
Характеристики диапазона извлечения и сообщения об ошибках
Выбранный диапазон
     Имя файла H:\MP 3\Cliff Richard and The Shadows.2009.''Reunited 50th Anniversary''\Cliff Richard and The Shadows.2009.''Reunited 50th Anniversary''.ape
     Пиковый уровень 98.8 %
     Качество диапазона 99.9 %
     CRC копии 2660623A
     Копирование... OK
Ошибок не произошло
AccurateRip: сводка
Трек  1  нет в базе данных
Трек  2  нет в базе данных
Трек  3  нет в базе данных
Трек  4  нет в базе данных
Трек  5  нет в базе данных
Трек  6  нет в базе данных
Трек  7  нет в базе данных
Трек  8  нет в базе данных
Трек  9  нет в базе данных
Трек 10  нет в базе данных
Трек 11  нет в базе данных
Трек 12  нет в базе данных
Трек 13  нет в базе данных
Трек 14  нет в базе данных
Трек 15  нет в базе данных
Трек 16  нет в базе данных
Трек 17  нет в базе данных
Трек 18  нет в базе данных
Трек 19  нет в базе данных
Трек 20  нет в базе данных
Трек 21  нет в базе данных
Трек 22  нет в базе данных
Ни одного трека нет в базе AccurateRip
Конец отчёта
Правила, инструкции, FAQ!!!
Торрент  Добавлен [26 мар 2019, 20:34] Скачать торрент Магнет ссылка
Скачать торрент
[ Размер 16.63 КБ / Просмотров 6 ]

Статус
Проверен 
 
Размер  404 МБ
Приватный: Нет (DHT включён)
.torrent скачан  1
 


     Отправить личное сообщение
   
Страница 1 из 1
Показать сообщения за:  Поле сортировки  
Начать новую тему Ответить на тему


Сейчас этот форум просматривают: нет зарегистрированных пользователей и гости: 0


Вы не можете начинать темы
Вы не можете отвечать на сообщения
Вы не можете редактировать свои сообщения
Вы не можете удалять свои сообщения
Вы не можете добавлять вложения

Перейти:  
cron