Начать новую тему Ответить на тему
Статистика раздачи
Размер: 424.48 МБ | Добавлен: 26 мар 2019, 20:34 | Скачали: 1
Сидеров: 1  [0 байт/сек]    Личеров: 1  [0 байт/сек]
Пред. тема | След. тема 

Автор
Сообщение

СообщениеДобавлено: 26 мар 2019, 20:34 

Ответить с цитатой 

Cliff Richard & The Shadows - Summer Holiday
Жанр: Rock'N'Roll
Год выпуска диска: 1963 (2003 Re-Issue)
Производитель диска: England
Аудио кодек: FLAC
Тип рипа: image+.cue
Битрейт аудио: lossless
Продолжительность: 01:06:19
Трэклист:
01.Seven Days to a Holiday (2003 Digital Remaster)
02.Summer Holiday (2003 Digital Remaster)
03.Let Us Take You For a Ride (2003 Digital Remaster)
04.Les Girls (2003 Digital Remaster)
05.Round and Round (2003 Digital Remaster)
06.Foot Tapper (2003 Digital Remaster)
07.Stranger in Town (2003 Digital Remaster)
08.Orlando's Mime (2003 Digital Remaster)
09.Bachelor Boy (2003 Digital Remaster)
10.A Swingin' Affair (2003 Digital Remaster)
11.Really Waltzing (2003 Digital Remaster)
12.All at Once (2003 Digital Remaster)
13.Dancing Shoes (2003 Digital Remaster)
14.Yugoslav Wedding (2003 Digital Remaster)
15.The Next Time (2003 Digital Remaster)
16.Big News (2003 Digital Remaster)
17.Summer Holiday Advertising EP Pt. 1 (1997 Digital Remaster)
18.The Next Time (Previously Unreleased Rehearsal Take)
19.Bachelor Boy (Previously Unreleased Alternate Take Including False Start)
20.Les Girls (Previously Unreleased Film Version) (Mono)
21.Summer Holiday Advertising EP Pt. 2 (1997 Digital Remaster)
22.Brass Band Opening /Summer Holiday (Previously Unreleased Film Version) (Mono)
23.Bachelor Boy (Film Version) (2003 Digital Remaster)
24.The Next Time (Previously Unreleased Film Version)
25.Big News (Previously Unreleased Film Version)
26.Summer Holiday (Film Version) (2003 Digital Remaster)
Доп. информация:
As some point in the early 60s, Cliff Richard must have seen an Elvis Presley flick and mused, "I could do that." As proven by SUMMER HOLIDAY, he did. This reissue of the film's soundtrack features alternate versions of virtually the entire score. Even Ennio Morricone would be impressed.
40th anniversary remastered reissue of 1963 soundtracks includes post card replicas of the original cinema lobby cards, previously unseen photos (including stills from the film), extensive sleevenotes (including the story of the film, behind the scenes facts, & detailed recording notes about each of the original album tracks), & ten bonus tracks, 'Summer Holiday Advertising EP Part 1', 'The Next Time' (rehearsal take), 'Bachelor Boy' (including false start), 'Les Girls' (alternate version), 'Summer Holiday Advertising EP Part 2', 'Brass Band Opening/Summer Holiday' (opening title film version), 'Bachelor Boy' (film version), 'The Next Time' (film version), 'Big News' (film version), & 'Summer Holiday' (film version). Deluxe packaging includes triple gatefold 7 inch paper sleeve. EMI. 2003.
---------------------------------------------------------------------------------------------------------------------------------------------
Originally released in summer 1963, Summer Holiday was both the most successful movie and soundtrack that Cliff Richard ever put its name to, an almost absurdly feelgood flick, accompanied by some of the best (and best-loved) songs in his entire catalog. Even today, no Richard hit compilation would be complete without the title track, "Bachelor Boy", "The Next Time" and "Dancing Shoes", while songs that were essentially regarded as soundtrack filler have likewise taken on a life of their own.The first serious attempt to mine the Summer Holiday archive arrived in 1996, when EMI's Cliff Richard At The Movies compilation included the radically altered movie versions of "Bachelor Boy" and "Summer Holiday" among its bonus tracks. Both reappear here, alongside fellow cinema-only takes of "The Next Time", "Big News" and the Shadows' solo "Big News"; also featured are rehearsal takes of "The Next Time" and "Bachelor Boy", plus both sides of an advertising EP distributed to movie theaters on the eve of the film's release.It's a solid gathering, with the movie versions at least the equal of the LP and single cuts. Of course it is difficult, after all these years, to fully reappraise Summer Holiday in the light of these new excavations -- the original album itself remains such a classic that any deviation from the familiar arrangements seems somehow wrong. But still, the fortieth anniversary of one of British cinema's greatest successes needed celebrating and, in the absence of a fully remastered and bonus packed DVD reissue, this set fulfilled that need very well.
Exact Audio Copy V0.99 prebeta 4 from 23. January 2008
EAC extraction logfile from 30. April 2008, 23:52
Cliff Richard & The Shadows / Summer Holiday
Used drive : Optiarc DVD RW AD-7173A Adapter: 0 ID: 0
Read mode : Secure
Utilize accurate stream : Yes
Defeat audio cache : Yes
Make use of C2 pointers : No
Read offset correction : 48
Overread into Lead-In and Lead-Out : No
Fill up missing offset samples with silence : Yes
Delete leading and trailing silent blocks : No
Null samples used in CRC calculations : Yes
Used interface : Installed external ASPI interface
Used output format : User Defined Encoder
Selected bitrate : 128 kBit/s
Quality : High
Add ID3 tag : No
Command line compressor : C:\Program Files\REACT\REACT.exe
Additional command line options : REACT %o %s %d "%a" "%g" "%t" "%n" "%x" "%y" "%m" "%e" "%f" "%b" %r
TOC of the extracted CD
Track | Start | Length | Start sector | End sector
---------------------------------------------------------
1 | 0:00.00 | 3:12.60 | 0 | 14459
2 | 3:12.60 | 2:09.25 | 14460 | 24159
3 | 5:22.10 | 4:38.24 | 24160 | 45033
4 | 10:00.34 | 2:00.66 | 45034 | 54099
5 | 12:01.25 | 2:03.57 | 54100 | 63381
6 | 14:05.07 | 2:26.32 | 63382 | 74363
7 | 16:31.39 | 2:35.40 | 74364 | 86028
8 | 19:07.04 | 2:18.30 | 86029 | 96408
9 | 21:25.34 | 2:02.62 | 96409 | 105620
10 | 23:28.21 | 4:18.64 | 105621 | 125034
11 | 27:47.10 | 1:57.27 | 125035 | 133836
12 | 29:44.37 | 3:52.11 | 133837 | 151247
13 | 33:36.48 | 2:09.73 | 151248 | 160995
14 | 35:46.46 | 2:59.48 | 160996 | 174468
15 | 38:46.19 | 2:59.18 | 174469 | 187911
16 | 41:45.37 | 1:57.10 | 187912 | 196696
17 | 43:42.47 | 1:06.50 | 196697 | 201696
18 | 44:49.22 | 3:37.47 | 201697 | 218018
19 | 48:26.69 | 2:36.03 | 218019 | 229721
20 | 51:02.72 | 2:16.69 | 229722 | 239990
21 | 53:19.66 | 3:36.60 | 239991 | 256250
22 | 56:56.51 | 1:41.27 | 256251 | 263852
23 | 58:38.03 | 1:59.48 | 263853 | 272825
24 | 60:37.51 | 2:47.53 | 272826 | 285403
25 | 63:25.29 | 1:30.42 | 285404 | 292195
26 | 64:55.71 | 1:23.00 | 292196 | 298420
Range status and errors
Selected range
Filename F:\Music\Cliff Richard & The Shadows - (2003) Summer Holiday.wav
Peak level 100.0 %
Range quality 100.0 %
Copy CRC 52F02841
Copy OK
No errors occurred
End of status report
Внимание! fooCDtest 24 и 25 трэк показал как MPEG. Лично я грешу на ремастеринг, но на всякий случай ниже прикреплен спектр этих песен от Adobe Audition 3.0
P.S. Если это повтор, прошу меня простить, значит, плохо искал!
Правила, инструкции, FAQ!!!
Торрент  Добавлен [26 мар 2019, 20:34] Скачать торрент Магнет ссылка
Скачать торрент
[ Размер 17.39 КБ / Просмотров 4 ]

Статус
Проверен 
 
Размер  424.48 МБ
Приватный: Нет (DHT включён)
.torrent скачан  1
 


     Отправить личное сообщение
   
Страница 1 из 1
Показать сообщения за:  Поле сортировки  
Начать новую тему Ответить на тему


Сейчас этот форум просматривают: нет зарегистрированных пользователей и гости: 0


Вы не можете начинать темы
Вы не можете отвечать на сообщения
Вы не можете редактировать свои сообщения
Вы не можете удалять свои сообщения
Вы не можете добавлять вложения

Перейти:  
cron