Начать новую тему Ответить на тему
Статистика раздачи
Размер: 219.83 МБ | Добавлен: 26 мар 2019, 19:39 | Скачали: 0
Сидеров: 0  [0 байт/сек]    Личеров: 0  [0 байт/сек]
Пред. тема | След. тема 

Автор
Сообщение

СообщениеДобавлено: 26 мар 2019, 19:39 

Ответить с цитатой 

Bay City Rollers-Rollin'
Жанр: Rock n Roll
Год выпуска диска: 2000
Производитель диска: Russia
Аудио кодек: APE
Тип рипа: image+.cue
Битрейт аудио: lossless
Продолжительность: 0:37:04
Трэклист:
CD: Bay City Rollers - Rollin'
01. Shang-a-lang [0:03:07.62]
02. Give it to me now [0:03:48.40]
03. Angel Angel [0:02:27.70]
04. Be my baby [0:03:27.35]
05. Just a little love [0:02:57.10]
06. Remember (Sha la la la) [0:02:33.55]
07. Saturday night [0:02:57.73]
08. Ain't it strange [0:02:10.52]
09. Please stay [0:03:54.08]
10. Jenny gotta dance [0:03:06.70]
11. There goes my baby [0:03:18.60]
12. Summerlove sensation [0:03:12.65]
С интернета
Как довольно часто бывает вслед за успехом последовали неудачи.
В 1976 году в команде начались трения, и первым из коллектива ушел Алан Лонгмюр. Его сменил Ян Митчелл (р. 22 августа 1958), но он недолго пробасил в банде и был заменен Патом Макглинном (р. 31 марта 1958). С 1977 года звезда "Bay city rollers" начала закатываться. В последний раз в этом году их альбом ("It's a game") поприсутствовал в английских чартах. В Америке, правда, команду неплохо принимали, однако отзывы в прессе не предвещали ничего хорошего. В 1978-м в группу вернулся Алан, но вскоре выразил желание уйти Маккеоун. Его заменили Дунканом Фором, после чего свалил Фолкнер, занявшийся сольной карьерой.
Фактически группа распалась, но оставшиеся музыканты еще пытались делать кое-какие поползновения. Команду реанимировали несколько раз, причем под разными вывесками типа "New rollers", "Rollers" и т.п., и даже умудрялись выпускать пластинки, но это уже было жалкое подобие былых "Bay city rollers
Exact Audio Copy V0.99 prebeta 4 from 23. January 2008
EAC extraction logfile from 4. April 2009, 12:13
Bay City Rollers / Rollin'
Used drive : Optiarc DVD RW AD-7173A Adapter: 3 ID: 0
Read mode : Secure
Utilize accurate stream : Yes
Defeat audio cache : Yes
Make use of C2 pointers : No
Read offset correction : 48
Overread into Lead-In and Lead-Out : No
Fill up missing offset samples with silence : Yes
Delete leading and trailing silent blocks : No
Null samples used in CRC calculations : Yes
Used interface : Native Win32 interface for Win NT & 2000
Used output format : Internal WAV Routines
Sample format : 44.100 Hz; 16 Bit; Stereo
TOC of the extracted CD
Track | Start | Length | Start sector | End sector
---------------------------------------------------------
1 | 0:00.37 | 3:07.62 | 37 | 14123
2 | 3:08.24 | 3:48.40 | 14124 | 31263
3 | 6:56.64 | 2:27.70 | 31264 | 42358
4 | 9:24.59 | 3:27.35 | 42359 | 57918
5 | 12:52.19 | 2:57.10 | 57919 | 71203
6 | 15:49.29 | 2:33.55 | 71204 | 82733
7 | 18:23.09 | 2:57.73 | 82734 | 96081
8 | 21:21.07 | 2:10.52 | 96082 | 105883
9 | 23:31.59 | 3:54.08 | 105884 | 123441
10 | 27:25.67 | 3:06.70 | 123442 | 137461
11 | 30:32.62 | 3:18.60 | 137462 | 152371
12 | 33:51.47 | 3:12.65 | 152372 | 166836
Range status and errors
Selected range
Filename C:\Documents and Settings\Юрий\Рабочий стол\Новая папка 1\Bay City Rollers -Rollin'\Bay City Rollers - Rollin'.wav
Peak level 100.0 %
Range quality 99.9 %
Copy CRC A810442E
Copy OK
No errors occurred
AccurateRip summary
Track 1 not present in database
Track 2 not present in database
Track 3 not present in database
Track 4 not present in database
Track 5 not present in database
Track 6 not present in database
Track 7 not present in database
Track 8 not present in database
Track 9 not present in database
Track 10 not present in database
Track 11 not present in database
Track 12 not present in database
None of the tracks are present in the AccurateRip database
End of status report
Правила, инструкции, FAQ!!!
Торрент  Добавлен [26 мар 2019, 19:39] Скачать торрент Магнет ссылка
Скачать торрент
[ Размер 17.96 КБ / Просмотров 12 ]

Статус
Проверен 
 
Размер  219.83 МБ
Приватный: Нет (DHT включён)
.torrent скачан  0
 


     Отправить личное сообщение
   
Страница 1 из 1
Показать сообщения за:  Поле сортировки  
Начать новую тему Ответить на тему


Сейчас этот форум просматривают: нет зарегистрированных пользователей и гости: 0


Вы не можете начинать темы
Вы не можете отвечать на сообщения
Вы не можете редактировать свои сообщения
Вы не можете удалять свои сообщения
Вы не можете добавлять вложения

Перейти:  
cron