Начать новую тему Ответить на тему
Статистика раздачи
Размер: 243.79 МБ | Добавлен: 26 мар 2019, 19:50 | Скачали: 0
Сидеров: 0  [0 байт/сек]    Личеров: 0  [0 байт/сек]
Пред. тема | След. тема 

Автор
Сообщение

СообщениеДобавлено: 26 мар 2019, 19:50 

Ответить с цитатой 

July Talk - Touch
Жанр: Rock, Rock & Roll, Dream Pop, Pop Punk
Страна-производитель диска: USA
Год издания диска: 2016
Издатель (лейбл): Sleepless Records/Island
Страна: Canada
Аудиокодек: FLAC (*.flac)
Тип рипа: tracks
Битрейт аудио: lossless
Продолжительность: 00:36:40
Источник (релизер): bandcamp.com
Наличие сканов в содержимом раздачи:
Треклист:
01. Picturing Love 03:35
02. Beck + Call 03:06
03. Now I Know 03:48
04. Johnny + Mary 02:27
05. Strange Habit 04:35
06. Push + Pull 02:51
07. Lola + Joseph 03:34
08. So Sorry 03:06
09. Jesus Said So 04:23
10. Touch 05:15
Код:
-----------------------
DON'T MODIFY THIS FILE
-----------------------
PERFORMER: auCDtect Task Manager, ver. 1.5.1RC4 build 1.5.1.5
Copyright (c) 2008-2010 y-soft. All rights reserved
[url=http://y-soft.org]http://y-soft.org[/url]
ANALYZER: auCDtect: CD records authenticity detector, version 0.8.2
Copyright (c) 2004 Oleg Berngardt. All rights reserved.
Copyright (c) 2004 Alexander Djourik. All rights reserved.
FILE: 10. Touch.flac
  Size: 34610070 Hash: CB8B2532A77C7C337E2FA094DE6C2789 Accuracy: -m0
  Conclusion: CDDA 100%
  Signature: 52574C36BC04556F2912EA76BC47BBD046958C6B
FILE: 09. Jesus Said So.flac
  Size: 28501339 Hash: 78625E3A2ECDEE7285B7B07CCA3BDCF3 Accuracy: -m0
  Conclusion: CDDA 100%
  Signature: ABB78D36BC6B28F290A626C887A3C4CB5FFC8056
FILE: 08. So Sorry.flac
  Size: 22763113 Hash: C009287E7DF7EB5C8B68A41F7CA70CFC Accuracy: -m0
  Conclusion: CDDA 100%
  Signature: 6C3D9271283ECE420C72F7CE8BF83C16A092920B
FILE: 07. Lola + Joseph.flac
  Size: 26214271 Hash: F20DA29708CBE1AEEFB6CC2BE68FAAF7 Accuracy: -m0
  Conclusion: CDDA 100%
  Signature: EC4488AD565DF903C98CD3F1957407683C733EFF
FILE: 06. Push + Pull.flac
  Size: 22086313 Hash: C1D7C0200B41742BF9803512A12AC60E Accuracy: -m0
  Conclusion: CDDA 100%
  Signature: 3304A3C3933A57A26350C9093A6C1F977F13842B
FILE: 05. Strange Habit.flac
  Size: 28910835 Hash: 8CCA8E1A57F8599C58EFCF234D96534D Accuracy: -m0
  Conclusion: CDDA 100%
  Signature: 6AB01DE502255EF39B0CCDCD2D9CBB3C846815E6
FILE: 04. Johnny + Mary.flac
  Size: 17497637 Hash: F71276C9BDD5430211E1B4F4C28C7D62 Accuracy: -m0
  Conclusion: CDDA 100%
  Signature: 58B682054222A10A0807D1E0943644916E84F105
FILE: 03. Now I Know.flac
  Size: 27529386 Hash: 68B62FF9F514762CE34CB576860FAB08 Accuracy: -m0
  Conclusion: CDDA 100%
  Signature: 81E12693E98B1D82338C1A0AA7C7BCDB99DD6FA7
FILE: 02. Beck + Call.flac
  Size: 22106702 Hash: 105A9B16C7DA6EFD30F7725740B5484A Accuracy: -m0
  Conclusion: CDDA 100%
  Signature: 565995A47217383E559C1F4BD662FF7EF02CB3AC
FILE: 01. Picturing Love.flac
  Size: 25188507 Hash: F9B9D43D59C937B8C819F56A391B0EB6 Accuracy: -m0
  Conclusion: CDDA 100%
  Signature: D8BDF3A09A95C9F184A9E1E0465D1F8E54DD8ECB
Код:
foobar2000 1.3.9 / Замер динамического диапазона (DR) 1.1.1
Дата отчёта:  2016-10-31 20:23:06
--------------------------------------------------------------------------------
Анализ:   July Talk / Touch
--------------------------------------------------------------------------------
DR         Пики         RMS           Продолжительность трека
--------------------------------------------------------------------------------
DR4        0.00 дБ    -7.17 дБ      3:35 01-Picturing Love
DR3        0.00 дБ    -5.91 дБ      3:06 02-Beck + Call
DR5        0.00 дБ    -6.93 дБ      3:48 03-Now I Know
DR3        0.00 дБ    -4.37 дБ      2:27 04-Johnny + Mary
DR7        0.00 дБ    -9.98 дБ      4:35 05-Strange Habit
DR4        0.00 дБ    -6.38 дБ      2:51 06-Push + Pull
DR3        0.00 дБ    -5.17 дБ      3:34 07-Lola + Joseph
DR3        0.00 дБ    -5.31 дБ      3:06 08-So Sorry
DR5        0.00 дБ    -7.78 дБ      4:23 09-Jesus Said So
DR4        0.00 дБ    -6.33 дБ      5:15 10-Touch
--------------------------------------------------------------------------------
Количество треков: 10
Реальные значения DR: DR4
Частота:   44100 Гц
Каналов:   2
Разрядность:   16
Битрейт:   879 кбит/с
Кодек:   FLAC
================================================================================
Доп. информация
Канадцы July Talk, лавирующие в жанровых границах рок-н-ролл - поп - панк, собрались в Торонто в 2012-м. Группу составили вокалисты Peter Dreimanis (с голосом Джо Кокера) и Leah Fay, гитарист Ian Docherty, басист Josh Warburton и ударник Danny Miles. И уже в октябре дебютировали на Sleepless Records с самоназванным альбомом.
Дебют получился удачным, альбом был выдвинут на премию Juno в категории Лучший Альтернативный Альбом Года и по продажам достиг золотого статуса в Канаде. Затем последовало затишье, прерванное в 2014-м EP For Your Bloodshot Eyes. И вот 9-го сентября запущен второй лонгплей группы - Touch.
Sandra Sperounes из Edmonton Journal так описывает этот альбом: "Навязчивый, грязный и сокровенный взгляд на страсть, одиночество, одержимость и личное в мире под властью сотовых телефонов, компьютеров и потребления".
https://julytalk.bandcamp.com
https://en.wikipedia.org/wiki/July_Talk
http://exclaim.ca/music/article/july_talk-touch
https://www.pastemagazine.com/articles/2016/09/july-talk-touch-review.html
http://www.julytalk.com
Правила, инструкции, FAQ!!!
Торрент  Добавлен [26 мар 2019, 19:50] Скачать торрент Магнет ссылка
Скачать торрент
[ Размер 20.11 КБ / Просмотров 1 ]

Статус
Проверен 
 
Размер  243.79 МБ
Приватный: Нет (DHT включён)
.torrent скачан  0
 


     Отправить личное сообщение
   
Страница 1 из 1
Показать сообщения за:  Поле сортировки  
Начать новую тему Ответить на тему


Сейчас этот форум просматривают: нет зарегистрированных пользователей и гости: 0


Вы не можете начинать темы
Вы не можете отвечать на сообщения
Вы не можете редактировать свои сообщения
Вы не можете удалять свои сообщения
Вы не можете добавлять вложения

Перейти:  
cron