Начать новую тему Ответить на тему
Статистика раздачи
Размер: 260.19 МБ | Добавлен: 26 мар 2019, 20:14 | Скачали: 0
Сидеров: 0  [0 байт/сек]    Личеров: 2  [0 байт/сек]
Пред. тема | След. тема 

Автор
Сообщение

СообщениеДобавлено: 26 мар 2019, 20:14 

Ответить с цитатой 

Cliff Richard / Rock 'n' Roll!
Жанр: rock, rock-n-roll
Носитель: CD
Страна-производитель диска (релиза): UK
Год издания: 2013
Издатель (лейбл): Delta Leisure Group Plc.
Номер по каталогу: CD6853
Страна исполнителя (группы): UK
Аудиокодек: APE (*.ape)
Тип рипа: image+.cue
Битрейт аудио: lossless
Продолжительность: 55:52
Источник (релизер): London
Наличие сканов в содержимом раздачи: да
Треклист:
01. Move It
02. That'll Be the Day
03. Whole Lotta' Shakin' Goin' On (Live)
04. Schoolboy Crush
05. High Class Baby
06. My Feet Hit the Ground
07. Don't Bug Me Baby (Live)
08. King Creole (Live) (Oh Boy TV)
09. Rockin' Robin (Live) (Oh Boy TV)
10. High School Confidential (Live) (Oh Boy TV)
11. Livin' Lovin' Doll
12. Dynamite
13. Twenty Flight Rock
14. Blue Suede Shoes
15. Mean Woman Blues
16. Willie and the Hand Jive
17. D' In Love
18. Blue Moon
19. What'd I Say
20. Blueberry Hill
21. Ready Teddy (Live)
22. Too Much (Live)
23. Donna (Live)
24. (You're So Square) Baby I Don't Care (Live)
25. Mean Streak
Код:
Exact Audio Copy V0.99 prebeta 5 from 4. May 2009
EAC extraction logfile from 4. March 2015, 22:32
Cliff Richard / Rock 'n' Roll (25 Tracks)
Used drive  : hp      CDDVDW SH-216BB   Adapter: 0  ID: 0
Read mode               : Secure
Utilize accurate stream : Yes
Defeat audio cache      : Yes
Make use of C2 pointers : No
Read offset correction                      : 6
Overread into Lead-In and Lead-Out          : No
Fill up missing offset samples with silence : Yes
Delete leading and trailing silent blocks   : No
Null samples used in CRC calculations       : Yes
Used interface                              : Native Win32 interface for Win NT & 2000
Used output format              : Monkey's Audio Lossless Encoder
Selected bitrate                : High Lossless Compression
Quality                         : High
Add ID3 tag                     : No
Command line compressor         : C:\Program Files (x86)\Monkey's Audio\MAC.exe
Additional command line options : -v
TOC of the extracted CD
     Track |   Start  |  Length  | Start sector | End sector
    ---------------------------------------------------------
        1  |  0:00.00 |  2:22.27 |         0    |    10676
        2  |  2:22.27 |  2:11.71 |     10677    |    20572
        3  |  4:34.23 |  2:58.67 |     20573    |    33989
        4  |  7:33.15 |  2:31.22 |     33990    |    45336
        5  | 10:04.37 |  2:08.55 |     45337    |    54991
        6  | 12:13.17 |  1:59.43 |     54992    |    63959
        7  | 14:12.60 |  2:18.68 |     63960    |    74377
        8  | 16:31.53 |  0:46.40 |     74378    |    77867
        9  | 17:18.18 |  0:58.69 |     77868    |    82286
       10  | 18:17.12 |  1:49.41 |     82287    |    90502
       11  | 20:06.53 |  2:08.04 |     90503    |   100106
       12  | 22:14.57 |  1:55.24 |    100107    |   108755
       13  | 24:10.06 |  1:44.45 |    108756    |   116600
       14  | 25:54.51 |  1:45.36 |    116601    |   124511
       15  | 27:40.12 |  2:27.63 |    124512    |   135599
       16  | 30:08.00 |  2:36.44 |    135600    |   147343
       17  | 32:44.44 |  2:27.40 |    147344    |   158408
       18  | 35:12.09 |  3:31.48 |    158409    |   174281
       19  | 38:43.57 |  3:01.63 |    174282    |   187919
       20  | 41:45.45 |  2:43.63 |    187920    |   200207
       21  | 44:29.33 |  1:52.25 |    200208    |   208632
       22  | 46:21.58 |  2:15.70 |    208633    |   218827
       23  | 48:37.53 |  3:09.04 |    218828    |   233006
       24  | 51:46.57 |  2:08.34 |    233007    |   242640
       25  | 53:55.16 |  1:56.62 |    242641    |   251402
Range status and errors
Selected range
     Filename C:\Users\Arthur\Desktop\Cliff Richard - Rock 'n' Roll (25 Tracks).wav
     Peak level 89.2 %
     Range quality 100.0 %
     Test CRC E94EF593
     Copy CRC E94EF593
     Copy OK
No errors occurred
AccurateRip summary
Track  1  not present in database
Track  2  not present in database
Track  3  not present in database
Track  4  not present in database
Track  5  not present in database
Track  6  not present in database
Track  7  not present in database
Track  8  not present in database
Track  9  not present in database
Track 10  not present in database
Track 11  not present in database
Track 12  not present in database
Track 13  not present in database
Track 14  not present in database
Track 15  not present in database
Track 16  not present in database
Track 17  not present in database
Track 18  not present in database
Track 19  not present in database
Track 20  not present in database
Track 21  not present in database
Track 22  not present in database
Track 23  not present in database
Track 24  not present in database
Track 25  not present in database
None of the tracks are present in the AccurateRip database
End of status report
Код:
REM GENRE "Rock & Roll"
REM DATE 2013
REM DISCID 5C0D1819
REM COMMENT "ExactAudioCopy v0.99pb5"
PERFORMER "Cliff Richard"
TITLE "Rock 'n' Roll (25 Tracks)"
FILE "Cliff Richard - Rock 'n' Roll (25 Tracks).ape" WAVE
  TRACK 01 AUDIO
    TITLE "Move It"
    PERFORMER "Cliff Richard"
    INDEX 01 00:00:00
  TRACK 02 AUDIO
    TITLE "That'll Be The Day (live)"
    PERFORMER "Cliff Richard"
    INDEX 00 02:20:28
    INDEX 01 02:22:27
  TRACK 03 AUDIO
    TITLE "Whole Lotta Shakin' Goin' On (live)"
    PERFORMER "Cliff Richard"
    INDEX 00 04:32:24
    INDEX 01 04:34:23
  TRACK 04 AUDIO
    TITLE "Schoolboy Crush"
    PERFORMER "Cliff Richard"
    INDEX 00 07:31:16
    INDEX 01 07:33:15
  TRACK 05 AUDIO
    TITLE "High Class Baby"
    PERFORMER "Cliff Richard"
    INDEX 00 10:02:38
    INDEX 01 10:04:37
  TRACK 06 AUDIO
    TITLE "My Feet Hit The Ground"
    PERFORMER "Cliff Richard"
    INDEX 00 12:11:18
    INDEX 01 12:13:17
  TRACK 07 AUDIO
    TITLE "Don't Bug Me Baby (live)"
    PERFORMER "Cliff Richard"
    INDEX 00 14:10:61
    INDEX 01 14:12:60
  TRACK 08 AUDIO
    TITLE "King Creole (live)"
    PERFORMER "Cliff Richard"
    INDEX 00 16:29:54
    INDEX 01 16:31:53
  TRACK 09 AUDIO
    TITLE "Rockin' Robin (live)"
    PERFORMER "Cliff Richard"
    INDEX 00 17:16:19
    INDEX 01 17:18:18
  TRACK 10 AUDIO
    TITLE "High School Confidential (live)"
    PERFORMER "Cliff Richard"
    INDEX 00 18:15:13
    INDEX 01 18:17:12
  TRACK 11 AUDIO
    TITLE "Livin' Lovin' Doll"
    PERFORMER "Cliff Richard"
    INDEX 00 20:04:54
    INDEX 01 20:06:53
  TRACK 12 AUDIO
    TITLE "Dynamite"
    PERFORMER "Cliff Richard"
    INDEX 00 22:12:58
    INDEX 01 22:14:57
  TRACK 13 AUDIO
    TITLE "Twenty Flight Rock"
    PERFORMER "Cliff Richard"
    INDEX 00 24:08:07
    INDEX 01 24:10:06
  TRACK 14 AUDIO
    TITLE "Blue Suede Shoes"
    PERFORMER "Cliff Richard"
    INDEX 00 25:52:52
    INDEX 01 25:54:51
  TRACK 15 AUDIO
    TITLE "Mean Woman Blues"
    PERFORMER "Cliff Richard"
    INDEX 00 27:38:13
    INDEX 01 27:40:12
  TRACK 16 AUDIO
    TITLE "Willie And The Hand Jive"
    PERFORMER "Cliff Richard"
    INDEX 00 30:06:01
    INDEX 01 30:08:00
  TRACK 17 AUDIO
    TITLE "D' In Love"
    PERFORMER "Cliff Richard"
    INDEX 00 32:42:45
    INDEX 01 32:44:44
  TRACK 18 AUDIO
    TITLE "Blue Moon"
    PERFORMER "Cliff Richard"
    INDEX 00 35:10:10
    INDEX 01 35:12:09
  TRACK 19 AUDIO
    TITLE "What'd I Say"
    PERFORMER "Cliff Richard"
    INDEX 00 38:41:58
    INDEX 01 38:43:57
  TRACK 20 AUDIO
    TITLE "Blueberry Hill"
    PERFORMER "Cliff Richard"
    INDEX 00 41:43:46
    INDEX 01 41:45:45
  TRACK 21 AUDIO
    TITLE "Ready Teddy (live)"
    PERFORMER "Cliff Richard"
    INDEX 00 44:27:34
    INDEX 01 44:29:33
  TRACK 22 AUDIO
    TITLE "Too Much (live)"
    PERFORMER "Cliff Richard"
    INDEX 00 46:19:59
    INDEX 01 46:21:58
  TRACK 23 AUDIO
    TITLE "Donna (live)"
    PERFORMER "Cliff Richard"
    INDEX 00 48:35:54
    INDEX 01 48:37:53
  TRACK 24 AUDIO
    TITLE "Baby I Don't Care (live)"
    PERFORMER "Cliff Richard"
    INDEX 00 51:44:58
    INDEX 01 51:46:57
  TRACK 25 AUDIO
    TITLE "Mean Streak"
    PERFORMER "Cliff Richard"
    INDEX 00 53:53:17
    INDEX 01 53:55:16
Правила, инструкции, FAQ!!!
Торрент  Добавлен [26 мар 2019, 20:14] Скачать торрент Магнет ссылка
Скачать торрент
[ Размер 11.02 КБ / Просмотров 2 ]

Статус
Проверен 
 
Размер  260.19 МБ
Приватный: Нет (DHT включён)
.torrent скачан  0
 


     Отправить личное сообщение
   
Страница 1 из 1
Показать сообщения за:  Поле сортировки  
Начать новую тему Ответить на тему


Сейчас этот форум просматривают: нет зарегистрированных пользователей и гости: 0


Вы не можете начинать темы
Вы не можете отвечать на сообщения
Вы не можете редактировать свои сообщения
Вы не можете удалять свои сообщения
Вы не можете добавлять вложения

Перейти:  
cron