Начать новую тему Ответить на тему
Статистика раздачи
Размер: 241.57 МБ | Добавлен: 26 мар 2019, 20:15 | Скачали: 1
Сидеров: 2  [0 байт/сек]    Личеров: 0  [0 байт/сек]
Пред. тема | След. тема 

Автор
Сообщение

СообщениеДобавлено: 26 мар 2019, 20:15 

Ответить с цитатой 

Johnny Hallyday - "Vie"
Жанр: Rock, Rock'n'Roll, Chanson française
Год выпуска диска: 1998
Производитель диска: France (Mercury France). номер на диске 536 937 - 2. PHILIPS SACEM LC0305 STEREO
Аудио кодек: APE
Тип рипа: image+.cue
Битрейт аудио: lossless
Продолжительность: 39:17
Трэклист:
1 Essayez (Philippe Labro / Micky Jones - Tommy Brown)
2 Lire dans tes yeux (Jacques Lanzmann / Micky Jones - Tommy Brown)
3 La pollution (Jacques Lanzmann / Micky Jones - Tommy Brown)
4 Rendez-moi le soleil (Ezra Bouskela / Micky Jones - Tommy Brown)
5 Dans ton univers (Ezra Bouskela / Micky Jones - Tommy Brown)
6 C'est écrit sur les murs (Philippe Labro / Micky Jones - Tommy Brown)
7 Poème sur la 7e (Philipe Labro / Ludwig Van Beethoven)
8 La fille aux cheveux clairs (Philippe Labro / Eddie Vartan)
9 Le monde entier va sauter (Ezra Bouskela / Jean-Pierre Festi - Yvon Ouazana)
10 Deux amis pour un amour (R. Dumas / Jean-Jacques Debout)
11 Jésus Christ (Philippe Labro / Eddie Vartan)
Доп. информация: 1970 Mercury France, un label PolyGram.
http://fr.wikipedia.org/wiki/Vie_(album) (на франц.)
1, 2, 3, 5, 6 Arrgt. d'orchestre: R. Donnez. Arrgt. rythmique: M. Jones et T. Brown.
4 Arrgt. d'orchestre: M. Jones et T. Brown.
7, 8, 11 Arrgt. E. Vartan.
9 Arrgt. Yvon Ouazana et J. P.Festi.
10 Arrgt. J.-C. Vannier.
Editions: 1, 4, 5, 6: J. Hallyday Music
7, 8, 11: J. Hallyday Music/Meridian
3: J. Hallyday Music/Hachette
9: J. Hallyday Music/Warner Chappell Music France
2: Marouani/EMI France
10: EMI France.
EAC log
Exact Audio Copy V0.99 prebeta 4 from 23. January 2008
Отчёт EAC об извлечении, выполненном 6. сентября 2009, 15:55
Johnny Hallyday / Vie
Дисковод: HL-DT-STDVD-RAM GSA-H55N Adapter: 0 ID: 1
Режим чтения : Достоверность
Использование точного потока : Да
Отключение кэша аудио : Да
Использование указателей C2 : Нет
Коррекция смещения при чтении : 102
Способность читать области Lead-in и Lead-out : Нет
Заполнение пропущенных сэмплов тишиной : Да
Удаление блоков с тишиной в начале и конце : Нет
При вычислениях CRC использовались нулевые сэмплы : Да
Интерфейс : Установленный внешний ASPI-интерфейс
Выходной формат : Внутренние WAV-операции
Формат сэмплов : 44.100 Гц; 16 бит; стерео
TOC извлечённого CD
Трек | Старт | Длительность | Начальный сектор | Конечный сектор
---------------------------------------------------------------------
1 | 0:00.00 | 4:25.37 | 0 | 19911
2 | 4:25.37 | 3:14.15 | 19912 | 34476
3 | 7:39.52 | 5:02.63 | 34477 | 57189
4 | 12:42.40 | 3:07.05 | 57190 | 71219
5 | 15:49.45 | 4:09.15 | 71220 | 89909
6 | 19:58.60 | 3:35.37 | 89910 | 106071
7 | 23:34.22 | 2:37.48 | 106072 | 117894
8 | 26:11.70 | 3:12.40 | 117895 | 132334
9 | 29:24.35 | 3:08.67 | 132335 | 146501
10 | 32:33.27 | 3:33.48 | 146502 | 162524
11 | 36:07.00 | 3:10.30 | 162525 | 176804
Характеристики диапазона извлечения и сообщения об ошибках
Выбранный диапазон
Имя файла D:\TORRENT\Music\ТОРРЕНТ\JH\Johnny Hallyday - Vie.wav
Пиковый уровень 100.0 %
Качество диапазона 99.9 %
CRC копии 7E81F035
Копирование... OK
Ошибок не произошло
AccurateRip: сводка
Трек 1 нет в базе данных
Трек 2 нет в базе данных
Трек 3 нет в базе данных
Трек 4 нет в базе данных
Трек 5 нет в базе данных
Трек 6 нет в базе данных
Трек 7 нет в базе данных
Трек 8 нет в базе данных
Трек 9 нет в базе данных
Трек 10 нет в базе данных
Трек 11 нет в базе данных
Ни одного трека нет в базе AccurateRip
Конец отчёта
спасибо за спасибо
фото диска
Правила, инструкции, FAQ!!!
Торрент  Добавлен [26 мар 2019, 20:15] Скачать торрент Магнет ссылка
Скачать торрент
[ Размер 38.42 КБ / Просмотров 4 ]

Статус
Проверен 
 
Размер  241.57 МБ
Приватный: Нет (DHT включён)
.torrent скачан  1
 


     Отправить личное сообщение
   
Страница 1 из 1
Показать сообщения за:  Поле сортировки  
Начать новую тему Ответить на тему


Сейчас этот форум просматривают: нет зарегистрированных пользователей и гости: 0


Вы не можете начинать темы
Вы не можете отвечать на сообщения
Вы не можете редактировать свои сообщения
Вы не можете удалять свои сообщения
Вы не можете добавлять вложения

Перейти:  
cron