Начать новую тему Ответить на тему
Статистика раздачи
Размер: 287.84 МБ | Добавлен: 26 мар 2019, 19:46 | Скачали: 0
Сидеров: 0  [0 байт/сек]    Личеров: 0  [0 байт/сек]
Пред. тема | След. тема 

Автор
Сообщение

СообщениеДобавлено: 26 мар 2019, 19:46 

Ответить с цитатой 

Twoface - Sounds Of A Rude World

Жанр: Rock / Rock'n'Roll / Alternative Pop-Rock
Год выпуска диска: 2003
Производитель диска: Denmark
Аудио кодек: FLAC
Тип рипа: image+.cue
Битрейт аудио: lossless
Продолжительность: 39:28
Источник: Original pirat CD (болванка)
Трэклист:
1. Revelations Day
2. You
3. Fire In Your (Ay Ay)
4. In The Air
5. Beautiful To Me
6. The Grip
7. Slip And Slide
8. We Belong
9. Image Of The World
10. The Plan

Код:
Exact Audio Copy V0.99 prebeta 5 from 4. May 2009
EAC extraction logfile from 10. June 2010, 8:47
Twoface / Sounds Of A Rude World
Used drive  : PIONEER DVD-RW  DVR-111D   Adapter: 0  ID: 0
Read mode               : Secure
Utilize accurate stream : Yes
Defeat audio cache      : Yes
Make use of C2 pointers : No
Read offset correction                      : 48
Overread into Lead-In and Lead-Out          : No
Fill up missing offset samples with silence : Yes
Delete leading and trailing silent blocks   : No
Null samples used in CRC calculations       : Yes
Used interface                              : Native Win32 interface for Win NT & 2000
Used output format : Internal WAV Routines
Sample format      : 44.100 Hz; 16 Bit; Stereo
TOC of the extracted CD
     Track |   Start  |  Length  | Start sector | End sector
    ---------------------------------------------------------
        1  |  0:00.00 |  3:14.42 |         0    |    14591
        2  |  3:14.42 |  3:53.26 |     14592    |    32092
        3  |  7:07.68 |  4:05.14 |     32093    |    50481
        4  | 11:13.07 |  3:59.39 |     50482    |    68445
        5  | 15:12.46 |  4:59.02 |     68446    |    90872
        6  | 20:11.48 |  4:01.57 |     90873    |   109004
        7  | 24:13.30 |  3:46.71 |    109005    |   126025
        8  | 28:00.26 |  3:27.41 |    126026    |   141591
        9  | 31:27.67 |  3:50.36 |    141592    |   158877
       10  | 35:18.28 |  4:10.26 |    158878    |   177653
Range status and errors
Selected range
     Filename J:\Dark_Victory\Twoface - Sounds Of A Rude World.wav
     Peak level 100.0 %
     Range quality 100.0 %
     Test CRC BC989CEE
     Copy CRC BC989CEE
     Copy OK
No errors occurred
AccurateRip summary
Track  1  not present in database
Track  2  not present in database
Track  3  not present in database
Track  4  not present in database
Track  5  not present in database
Track  6  not present in database
Track  7  not present in database
Track  8  not present in database
Track  9  not present in database
Track 10  not present in database
None of the tracks are present in the AccurateRip database
End of status report
Код:
AUDIOCHECKER v2.0 beta (build 457) - by Dester - opdester@freemail.hu
~~~~~~~~~~~~~~~~~~~~~~~~~~~~~~~~~~
Started at: четверг, 10. 06. 2010. - 11:16.40
1 file found
1 -===- J:\uTorrent\Complete Files\Twoface_Sounds Of A Rude World_by Dark_Victory\Twoface - Sounds Of A Rude World.flac
  Extracted successfully
  Conclusion: this track is CDDA with probability 100%
  Tempfile successfully deleted.
Finished at: четверг, 10. 06. 2010. - 11:27.20 (operation time: 0:10.39)

Правила, инструкции, FAQ!!!
Торрент  Добавлен [26 мар 2019, 19:46] Скачать торрент Магнет ссылка
Скачать торрент
[ Размер 11.89 КБ / Просмотров 7 ]

Статус
Проверен 
 
Размер  287.84 МБ
Приватный: Нет (DHT включён)
.torrent скачан  0
 


     Отправить личное сообщение
   
Страница 1 из 1
Показать сообщения за:  Поле сортировки  
Начать новую тему Ответить на тему


Сейчас этот форум просматривают: нет зарегистрированных пользователей и гости: 0


Вы не можете начинать темы
Вы не можете отвечать на сообщения
Вы не можете редактировать свои сообщения
Вы не можете удалять свои сообщения
Вы не можете добавлять вложения

Перейти:  
cron