Начать новую тему Ответить на тему
Статистика раздачи
Размер: 88.22 МБ | Добавлен: 26 мар 2019, 19:49 | Скачали: 0
Сидеров: 0  [0 байт/сек]    Личеров: 0  [0 байт/сек]
Пред. тема | След. тема 

Автор
Сообщение

СообщениеДобавлено: 26 мар 2019, 19:49 

Ответить с цитатой 

Twoface / Fire in Your Eyes (Ay Ay) PR-Single
Жанр: Rock / Rock'n'Roll / Alternative Pop-Rock
Страна-производитель диска: Германия
Год издания: 2002
Издатель (лейбл): Edel-Mega Records Denmark
Номер по каталогу: EMR 014474-5
Страна: Дания
Аудиокодек: FLAC (*.flac)
Тип рипа: image+.cue
Битрейт аудио: lossless
Продолжительность: 11:37
Источник (релизер): собственный диск
Наличие сканов в содержимом раздачи: нет
Треклист:
1. Radio version (03:30)
2. Album Version (04:02)
3. Alternative mix (04:00)
Код:
Exact Audio Copy V1.0 beta 2 from 29. April 2011
Отчёт EAC об извлечении, выполненном 11. августа 2013, 15:36
Twoface / Fire in you eyes (Ay ay)
Дисковод: HL-DT-STDVDRAM GSA-4167B   Adapter: 0  ID: 1
Режим чтения : Скоростной
Коррекция смещения при чтении                     : 0
Способность читать области Lead-in и Lead-out     : Нет
Заполнение пропущенных сэмплов тишиной            : Да
Удаление блоков с тишиной в начале и конце        : Нет
При вычислениях CRC использовались нулевые сэмплы : Нет
Интерфейс                                         : Встроенный Win32-интерфейс для Win NT/2000
Выходной формат : Внутренние WAV-операции
Формат сэмплов  : 44.100 Гц; 16 бит; стерео
TOC извлечённого CD
     Трек |   Старт  | Длительность | Начальный сектор | Конечный сектор
    ---------------------------------------------------------------------
       1  |  0:00.00 |    3:32.07   |           0      |      15906
       2  |  3:32.07 |    4:03.45   |       15907      |      34176
       3  |  7:35.52 |    4:00.73   |       34177      |      52249
Характеристики диапазона извлечения и сообщения об ошибках
Выбранный диапазон
     Имя файла H:\=Music=\Twoface - Fire in your eyes (Ay Ay)\Twoface - Fire in you eyes (Ay ay).wav
     Пиковый уровень 99.9 %
     Скорость извлечения 20.6 X
     CRC копии 9313196E
     Копирование... OK
Ошибок не произошло
Конец отчёта
Код:
AUDIOCHECKER v2.0 beta (build 457) - by Dester - opdester@freemail.hu
~~~~~~~~~~~~~~~~~~~~~~~~~~~~~~~~~~
Started at: воскресенье, 11. 08. 2013. - 16:35.52
1 file found
1 -===- H:\=Music=\Twoface - Fire in your eyes (Ay Ay)\Twoface - Fire in you eyes (Ay ay).flac
  Extracted successfully
  Conclusion: this track is CDDA with probability 100%
  Tempfile successfully deleted.
Finished at: воскресенье, 11. 08. 2013. - 16:38.20 (operation time: 0:02.27)
Доп. информация: Words and music by Søggard
Track 1 & 2 produced by Cheif 1
Track 3 produced by Twoface
A&R by: Jakob Deichmann
Photos by: Søren Solkær Starbird
Cover design by: Morten Vilhelm
(P) & (C) 2002 Edel-Mega Records Denmark
Правила, инструкции, FAQ!!!
Торрент  Добавлен [26 мар 2019, 19:49] Скачать торрент Магнет ссылка
Скачать торрент
[ Размер 14.42 КБ / Просмотров 0 ]

Статус
Проверен 
 
Размер  88.22 МБ
Приватный: Нет (DHT включён)
.torrent скачан  0
 


     Отправить личное сообщение
   
Страница 1 из 1
Показать сообщения за:  Поле сортировки  
Начать новую тему Ответить на тему


Сейчас этот форум просматривают: нет зарегистрированных пользователей и гости: 0


Вы не можете начинать темы
Вы не можете отвечать на сообщения
Вы не можете редактировать свои сообщения
Вы не можете удалять свои сообщения
Вы не можете добавлять вложения

Перейти:  
cron