Начать новую тему Ответить на тему
Статистика раздачи
Размер: 425 МБ | Добавлен: 26 мар 2019, 21:05 | Скачали: 0
Сидеров: 0  [0 байт/сек]    Личеров: 0  [0 байт/сек]
Пред. тема | След. тема 

Автор
Сообщение

СообщениеДобавлено: 26 мар 2019, 21:05 

Ответить с цитатой 

Waltham / Permission To Build

Жанр: Rock Related
Носитель: CD
Страна-производитель диска (релиза): USA
Год издания: 2003
Издатель (лейбл): Traktor7
Номер по каталогу: 005
Страна исполнителя (группы): USA
Аудиокодек: FLAC (*.flac)
Тип рипа: tracks+.cue
Битрейт аудио: lossless
Продолжительность: 48:53
Источник (релизер): endlessmike
Наличие сканов в содержимом раздачи: да
Треклист:
01. So Lonely (3:41)
02. All I Want Is You (3:28)
03. Cheryl (3:42)
04. Don't Say It's Too Late (3:49)
05. Hopeless (2:53)
06. Back to You (4:15)
07. Hook Me Up (With Your Friend) (3:48)
08. Maria Simeone (2:34)
09. Nicole (3:13)
10. Laura (3:41)
11. Say It Again (5:31)
12. Feelin' It/Wake Up (8:18)
Код:
X Lossless Decoder version 20141129 (148.1)
XLD extraction logfile from 2016-06-05 11:41:00 -0400
Waltham / Permission to Build
Used drive : TSSTcorp BDDVDW SE-506BB (revision TS00)
Media type : Pressed CD
Ripper mode             : XLD Secure Ripper
Disable audio cache     : OK for the drive with a cache less than 1375KiB
Make use of C2 pointers : NO
Read offset correction  : 6
Max retry count         : 100
Gap status              : Analyzed, Appended (except HTOA)
TOC of the extracted CD
     Track |   Start  |  Length  | Start sector | End sector
    ---------------------------------------------------------
        1  | 00:00:00 | 03:41:25 |         0    |    16599
        2  | 03:41:25 | 03:28:00 |     16600    |    32199
        3  | 07:09:25 | 03:42:12 |     32200    |    48861
        4  | 10:51:37 | 03:48:45 |     48862    |    66006
        5  | 14:40:07 | 02:53:15 |     66007    |    78996
        6  | 17:33:22 | 04:14:73 |     78997    |    98119
        7  | 21:48:20 | 03:47:50 |     98120    |   115194
        8  | 25:35:70 | 02:34:22 |    115195    |   126766
        9  | 28:10:17 | 03:13:13 |    126767    |   141254
       10  | 31:23:30 | 03:41:00 |    141255    |   157829
       11  | 35:04:30 | 05:30:67 |    157830    |   182646
       12  | 40:35:22 | 08:17:68 |    182647    |   219989
AccurateRip Summary (DiscID: 00139976-00b84f23-920b750c)
    Track 01 : OK (v1+v2, confidence 2/2)
    Track 02 : OK (v1+v2, confidence 2/2)
    Track 03 : OK (v1+v2, confidence 2/2)
    Track 04 : OK (v1+v2, confidence 2/2)
    Track 05 : OK (v1+v2, confidence 2/2)
    Track 06 : OK (v1+v2, confidence 2/2)
    Track 07 : OK (v1+v2, confidence 2/2)
    Track 08 : OK (v1+v2, confidence 2/2)
    Track 09 : OK (v1+v2, confidence 2/2)
    Track 10 : OK (v1+v2, confidence 2/2)
    Track 11 : OK (v1+v2, confidence 2/2)
    Track 12 : OK (v1+v2, confidence 2/2)
        ->All tracks accurately ripped.
All Tracks
    Album gain               : -10.42 dB
    Peak                     : 1.000000
    Statistics
        Read error                           : 0
        Jitter error (maybe fixed)           : 6
        Retry sector count                   : 827
        Damaged sector count                 : 0
Track 01
    Filename : /Users/a60/Desktop/xLD conversions/Waltham - 2003 - Permission to Build [FLAC]/01 So Lonely.flac
    Pre-gap length : 00:02:00
    Track gain               : -10.23 dB
    Peak                     : 0.988678
    CRC32 hash (test run)    : 26501D13
    CRC32 hash               : 26501D13
    CRC32 hash (skip zero)   : 469BCD3A
    AccurateRip v1 signature : 57150A34
    AccurateRip v2 signature : 21B2609E
        ->Accurately ripped (v1+v2, confidence 1+1/2)
    Statistics
        Read error                           : 0
        Jitter error (maybe fixed)           : 0
        Retry sector count                   : 0
        Damaged sector count                 : 0
Track 02
    Filename : /Users/a60/Desktop/xLD conversions/Waltham - 2003 - Permission to Build [FLAC]/02 All I Want Is You.flac
    Pre-gap length : 00:01:30
    Track gain               : -10.04 dB
    Peak                     : 0.988678
    CRC32 hash (test run)    : 5F49478E
    CRC32 hash               : 5F49478E
    CRC32 hash (skip zero)   : D14D25B1
    AccurateRip v1 signature : 01AF421D
    AccurateRip v2 signature : FE35B310
        ->Accurately ripped (v1+v2, confidence 1+1/2)
    Statistics
        Read error                           : 0
        Jitter error (maybe fixed)           : 0
        Retry sector count                   : 1
        Damaged sector count                 : 0
Track 03
    Filename : /Users/a60/Desktop/xLD conversions/Waltham - 2003 - Permission to Build [FLAC]/03 Cheryl.flac
    Pre-gap length : 00:01:08
    Track gain               : -10.07 dB
    Peak                     : 0.988708
    CRC32 hash (test run)    : B2D58F0C
    CRC32 hash               : B2D58F0C
    CRC32 hash (skip zero)   : 89809665
    AccurateRip v1 signature : 1DA5743E
    AccurateRip v2 signature : 1E4D2271
        ->Accurately ripped (v1+v2, confidence 1+1/2)
    Statistics
        Read error                           : 0
        Jitter error (maybe fixed)           : 0
        Retry sector count                   : 0
        Damaged sector count                 : 0
Track 04
    Filename : /Users/a60/Desktop/xLD conversions/Waltham - 2003 - Permission to Build [FLAC]/04 Don't Say It's Too Late.flac
    Pre-gap length : 00:01:27
    Track gain               : -9.74 dB
    Peak                     : 0.988708
    CRC32 hash (test run)    : 1E9B60B6
    CRC32 hash               : 1E9B60B6
    CRC32 hash (skip zero)   : 239D7AD1
    AccurateRip v1 signature : 08DCB24C
    AccurateRip v2 signature : 0A966F98
        ->Accurately ripped (v1+v2, confidence 1+1/2)
    Statistics
        Read error                           : 0
        Jitter error (maybe fixed)           : 0
        Retry sector count                   : 56
        Damaged sector count                 : 0
Track 05
    Filename : /Users/a60/Desktop/xLD conversions/Waltham - 2003 - Permission to Build [FLAC]/05 Hopeless.flac
    Pre-gap length : 00:01:22
    Track gain               : -10.17 dB
    Peak                     : 0.988678
    CRC32 hash (test run)    : AE19AD5F
    CRC32 hash               : AE19AD5F
    CRC32 hash (skip zero)   : 45712B44
    AccurateRip v1 signature : 18F6D55F
    AccurateRip v2 signature : B6C382CE
        ->Accurately ripped (v1+v2, confidence 1+1/2)
    Statistics
        Read error                           : 0
        Jitter error (maybe fixed)           : 0
        Retry sector count                   : 0
        Damaged sector count                 : 0
Track 06
    Filename : /Users/a60/Desktop/xLD conversions/Waltham - 2003 - Permission to Build [FLAC]/06 Back to You.flac
    Pre-gap length : 00:01:15
    Track gain               : -9.69 dB
    Peak                     : 1.000000
    CRC32 hash (test run)    : D4AB22A5
    CRC32 hash               : D4AB22A5
    CRC32 hash (skip zero)   : 395A0E2F
    AccurateRip v1 signature : 7EBCC7D8
    AccurateRip v2 signature : 3452A1F0
        ->Accurately ripped (v1+v2, confidence 1+1/2)
    Statistics
        Read error                           : 0
        Jitter error (maybe fixed)           : 2
        Retry sector count                   : 0
        Damaged sector count                 : 0
Track 07
    Filename : /Users/a60/Desktop/xLD conversions/Waltham - 2003 - Permission to Build [FLAC]/07 Hook Me Up (With Your Friend).flac
    Pre-gap length : 00:01:03
    Track gain               : -10.29 dB
    Peak                     : 0.988708
    CRC32 hash (test run)    : 8B6D803A
    CRC32 hash               : 8B6D803A
    CRC32 hash (skip zero)   : 9C451A79
    AccurateRip v1 signature : 04460829
    AccurateRip v2 signature : 0893E8EE
        ->Accurately ripped (v1+v2, confidence 1+1/2)
    Statistics
        Read error                           : 0
        Jitter error (maybe fixed)           : 0
        Retry sector count                   : 0
        Damaged sector count                 : 0
Track 08
    Filename : /Users/a60/Desktop/xLD conversions/Waltham - 2003 - Permission to Build [FLAC]/08 Maria Simeone.flac
    Track gain               : -10.41 dB
    Peak                     : 0.988708
    CRC32 hash (test run)    : 3D4F11F4
    CRC32 hash               : 3D4F11F4
    CRC32 hash (skip zero)   : D7BF0F6F
    AccurateRip v1 signature : A839724E
    AccurateRip v2 signature : 4703F385
        ->Accurately ripped (v1+v2, confidence 1+1/2)
    Statistics
        Read error                           : 0
        Jitter error (maybe fixed)           : 1
        Retry sector count                   : 77
        Damaged sector count                 : 0
Track 09
    Filename : /Users/a60/Desktop/xLD conversions/Waltham - 2003 - Permission to Build [FLAC]/09 Nicole.flac
    Track gain               : -10.61 dB
    Peak                     : 0.988739
    CRC32 hash (test run)    : C112E8F8
    CRC32 hash               : C112E8F8
    CRC32 hash (skip zero)   : 998728DE
    AccurateRip v1 signature : A157957A
    AccurateRip v2 signature : 596AB48C
        ->Accurately ripped (v1+v2, confidence 1+1/2)
    Statistics
        Read error                           : 0
        Jitter error (maybe fixed)           : 0
        Retry sector count                   : 216
        Damaged sector count                 : 0
Track 10
    Filename : /Users/a60/Desktop/xLD conversions/Waltham - 2003 - Permission to Build [FLAC]/10 Laura.flac
    Pre-gap length : 00:01:13
    Track gain               : -9.96 dB
    Peak                     : 0.988708
    CRC32 hash (test run)    : DC5672FD
    CRC32 hash               : DC5672FD
    CRC32 hash (skip zero)   : 63B6EA77
    AccurateRip v1 signature : 1FB3AF82
    AccurateRip v2 signature : A4D3FD03
        ->Accurately ripped (v1+v2, confidence 1+1/2)
    Statistics
        Read error                           : 0
        Jitter error (maybe fixed)           : 0
        Retry sector count                   : 0
        Damaged sector count                 : 0
Track 11
    Filename : /Users/a60/Desktop/xLD conversions/Waltham - 2003 - Permission to Build [FLAC]/11 Say It Again.flac
    Pre-gap length : 00:01:35
    Track gain               : -9.93 dB
    Peak                     : 0.988708
    CRC32 hash (test run)    : C50C3716
    CRC32 hash               : C50C3716
    CRC32 hash (skip zero)   : 4A9113DC
    AccurateRip v1 signature : 4BC86BA2
    AccurateRip v2 signature : CF7A3A25
        ->Accurately ripped (v1+v2, confidence 1+1/2)
    Statistics
        Read error                           : 0
        Jitter error (maybe fixed)           : 1
        Retry sector count                   : 477
        Damaged sector count                 : 0
Track 12
    Filename : /Users/a60/Desktop/xLD conversions/Waltham - 2003 - Permission to Build [FLAC]/12 Feelin' It/Wake Up.flac
    Pre-gap length : 00:02:35
    Track gain               : -11.12 dB
    Peak                     : 0.988739
    CRC32 hash (test run)    : B1AE740C
    CRC32 hash               : B1AE740C
    CRC32 hash (skip zero)   : DFDDE5F7
    AccurateRip v1 signature : 76D870EC
    AccurateRip v2 signature : C9C0CFE6
        ->Accurately ripped (v1+v2, confidence 1+1/2)
    Statistics
        Read error                           : 0
        Jitter error (maybe fixed)           : 2
        Retry sector count                   : 0
        Damaged sector count                 : 0
No errors occurred
End of status report
-----BEGIN XLD SIGNATURE-----
uefGdAUqhMys1ukx3RgeRfobyQ0_aKzmdOBzTrBISwSlsdlLcBMkYLe.Ajn4wgXXt5JFH6wcUmPNHzWWjmPZT__jtep3JNZgqOmt_xy
-----END XLD SIGNATURE-----
Код:
TITLE "Permission to Build"
PERFORMER "Waltham"
REM GENRE "Rock"
REM DATE "2003"
REM DISCID 920B750C
REM REPLAYGAIN_ALBUM_GAIN -10.42 dB
REM REPLAYGAIN_ALBUM_PEAK 1.000000
FILE "01 So Lonely.flac" WAVE
  TRACK 01 AUDIO
    TITLE "So Lonely"
    SONGWRITER "Frank Pino, Jr. - Tony Monaco - Craig Small - Peet Golan - Mikey Rorick"
    REM COMMENT "[Traktor7/Pino Bros. 005]"
    REM REPLAYGAIN_TRACK_GAIN -10.23 dB
    REM REPLAYGAIN_TRACK_PEAK 0.988678
    INDEX 01 00:00:00
  TRACK 02 AUDIO
    TITLE "All I Want Is You"
    SONGWRITER "Frank Pino, Jr. - Tony Monaco - Craig Small - Peet Golan - Mikey Rorick"
    REM COMMENT "[Traktor7/Pino Bros. 005]"
    REM REPLAYGAIN_TRACK_GAIN -10.04 dB
    REM REPLAYGAIN_TRACK_PEAK 0.988678
    INDEX 00 03:39:70
FILE "02 All I Want Is You.flac" WAVE
    INDEX 01 00:00:00
  TRACK 03 AUDIO
    TITLE "Cheryl"
    SONGWRITER "Frank Pino, Jr. - Tony Monaco - Craig Small - Peet Golan - Mikey Rorick"
    REM COMMENT "[Traktor7/Pino Bros. 005]"
    REM REPLAYGAIN_TRACK_GAIN -10.07 dB
    REM REPLAYGAIN_TRACK_PEAK 0.988708
    INDEX 00 03:26:67
FILE "03 Cheryl.flac" WAVE
    INDEX 01 00:00:00
  TRACK 04 AUDIO
    TITLE "Don't Say It's Too Late"
    SONGWRITER "Frank Pino, Jr. - Tony Monaco - Craig Small - Peet Golan - Mikey Rorick"
    REM COMMENT "[Traktor7/Pino Bros. 005]"
    REM REPLAYGAIN_TRACK_GAIN -9.74 dB
    REM REPLAYGAIN_TRACK_PEAK 0.988708
    INDEX 00 03:40:60
FILE "04 Don't Say It's Too Late.flac" WAVE
    INDEX 01 00:00:00
  TRACK 05 AUDIO
    TITLE "Hopeless"
    SONGWRITER "Frank Pino, Jr. - Tony Monaco - Craig Small - Peet Golan - Mikey Rorick"
    REM COMMENT "[Traktor7/Pino Bros. 005]"
    REM REPLAYGAIN_TRACK_GAIN -10.17 dB
    REM REPLAYGAIN_TRACK_PEAK 0.988678
    INDEX 00 03:47:23
FILE "05 Hopeless.flac" WAVE
    INDEX 01 00:00:00
  TRACK 06 AUDIO
    TITLE "Back to You"
    SONGWRITER "Frank Pino, Jr. - Tony Monaco - Craig Small - Peet Golan - Mikey Rorick"
    REM COMMENT "[Traktor7/Pino Bros. 005]"
    REM REPLAYGAIN_TRACK_GAIN -9.69 dB
    REM REPLAYGAIN_TRACK_PEAK 1.000000
    INDEX 00 02:52:00
FILE "06 Back to You.flac" WAVE
    INDEX 01 00:00:00
  TRACK 07 AUDIO
    TITLE "Hook Me Up (With Your Friend)"
    SONGWRITER "Frank Pino, Jr. - Tony Monaco - Craig Small - Peet Golan - Mikey Rorick"
    REM COMMENT "[Traktor7/Pino Bros. 005]"
    REM REPLAYGAIN_TRACK_GAIN -10.29 dB
    REM REPLAYGAIN_TRACK_PEAK 0.988708
    INDEX 00 04:13:70
FILE "07 Hook Me Up (With Your Friend).flac" WAVE
    INDEX 01 00:00:00
FILE "08 Maria Simeone.flac" WAVE
  TRACK 08 AUDIO
    TITLE "Maria Simeone"
    SONGWRITER "Frank Pino, Jr. - Tony Monaco - Craig Small - Peet Golan - Mikey Rorick"
    REM COMMENT "[Traktor7/Pino Bros. 005]"
    REM REPLAYGAIN_TRACK_GAIN -10.41 dB
    REM REPLAYGAIN_TRACK_PEAK 0.988708
    INDEX 01 00:00:00
FILE "09 Nicole.flac" WAVE
  TRACK 09 AUDIO
    TITLE "Nicole"
    SONGWRITER "Frank Pino, Jr. - Tony Monaco - Craig Small - Peet Golan - Mikey Rorick"
    REM COMMENT "[Traktor7/Pino Bros. 005]"
    REM REPLAYGAIN_TRACK_GAIN -10.61 dB
    REM REPLAYGAIN_TRACK_PEAK 0.988739
    INDEX 01 00:00:00
  TRACK 10 AUDIO
    TITLE "Laura"
    SONGWRITER "Frank Pino, Jr. - Tony Monaco - Craig Small - Peet Golan - Mikey Rorick"
    REM COMMENT "[Traktor7/Pino Bros. 005]"
    REM REPLAYGAIN_TRACK_GAIN -9.96 dB
    REM REPLAYGAIN_TRACK_PEAK 0.988708
    INDEX 00 03:12:00
FILE "10 Laura.flac" WAVE
    INDEX 01 00:00:00
  TRACK 11 AUDIO
    TITLE "Say It Again"
    SONGWRITER "Frank Pino, Jr. - Tony Monaco - Craig Small - Peet Golan - Mikey Rorick"
    REM COMMENT "[Traktor7/Pino Bros. 005]"
    REM REPLAYGAIN_TRACK_GAIN -9.93 dB
    REM REPLAYGAIN_TRACK_PEAK 0.988708
    INDEX 00 03:39:40
FILE "11 Say It Again.flac" WAVE
    INDEX 01 00:00:00
  TRACK 12 AUDIO
    TITLE "Feelin' It/Wake Up"
    SONGWRITER "Frank Pino, Jr. - Tony Monaco - Craig Small - Peet Golan - Mikey Rorick"
    REM COMMENT "[Traktor7/Pino Bros. 005]"
    REM REPLAYGAIN_TRACK_GAIN -11.12 dB
    REM REPLAYGAIN_TRACK_PEAK 0.988739
    INDEX 00 05:28:32
FILE "12 Feelin' It/Wake Up.flac" WAVE
    INDEX 01 00:00:00
Код:
-----------------------
DON'T MODIFY THIS FILE
-----------------------
PERFORMER: auCDtect Task Manager, ver. 1.6.0 RC1 build 1.6.0.1
Copyright (c) 2008-2010 y-soft. All rights reserved
[url=http://y-soft.org]http://y-soft.org[/url]
ANALYZER: auCDtect: CD records authenticity detector, version 0.8.2
Copyright (c) 2004 Oleg Berngardt. All rights reserved.
Copyright (c) 2004 Alexander Djourik. All rights reserved.
FILE: 12 Feelin' It _ Wake Up.flac
  Size: 61119991 Hash: 309097F4D98D0E3FA8BCF751F71932B6 Accuracy: -m0
  Conclusion: CDDA 100%
  Signature: 0A08752BB1FF3C9569EEACABBEE861D1AA0D724D
FILE: 11 Say It Again.flac
  Size: 35406768 Hash: 584B4787082D50E9FC9B1569A11F44EF Accuracy: -m0
  Conclusion: CDDA 100%
  Signature: CEC2BEEE3ECB3D1D592B42D4C29D6B0CA0082777
FILE: 10 Laura.flac
  Size: 27669228 Hash: 8B1C5B9A2C4CB8058FD0308754F7AB5A Accuracy: -m0
  Conclusion: CDDA 99%
  Signature: 03B3DC0A145883880DB68B642417FB57979AF5C7
FILE: 09 Nicole.flac
  Size: 24928512 Hash: F2C119DE99AB25D98D9104D850585A77 Accuracy: -m0
  Conclusion: CDDA 100%
  Signature: 74A56781F7A0759070C21335BA15CF86017D6AF0
FILE: 08 Maria Simeone.flac
  Size: 20285852 Hash: 50F9B48B45D73F127AD5E2EE7C81F6CD Accuracy: -m0
  Conclusion: CDDA 99%
  Signature: FEFD8FDA5B2DC86A0A54C414B95EDFCBD1927041
FILE: 07 Hook Me Up.flac
  Size: 29624788 Hash: CAFAECB2D9F6D23CF315CE721EF5B958 Accuracy: -m0
  Conclusion: CDDA 100%
  Signature: C87AC0BF8BD7F02A1FB8B4485B3332632EA76C1D
FILE: 06 Back to You.flac
  Size: 31895502 Hash: 21C68DBD0BB0CD7E698D6CBE8DB00CCF Accuracy: -m0
  Conclusion: CDDA 100%
  Signature: 6BD71A4A8242F97A1C63AC1E62F1D0DEEF110EB8
FILE: 05 Hopeless.flac
  Size: 20171807 Hash: 5AACFAEC9DEA557CD145986C4BF4C661 Accuracy: -m0
  Conclusion: CDDA 100%
  Signature: 408C545CE498BB50C67931603C1DE726080641FD
FILE: 04 Don't Say It's Too Late.flac
  Size: 29419838 Hash: B0D9A18833CBC699783B024D50785D8E Accuracy: -m0
  Conclusion: CDDA 99%
  Signature: FE8B14B8AAF864A2C38714C542EDFB3C6434B4FF
FILE: 03 Cheryl.flac
  Size: 28215524 Hash: 4B9194681EC9F3381D33AF791743C5A7 Accuracy: -m0
  Conclusion: CDDA 100%
  Signature: 5DA02DBF98986344040931F4273ADA075CDD761F
FILE: 02 All I Want Is You.flac
  Size: 26088218 Hash: 09424A68FF6CE804A4BFF435FE17E7AA Accuracy: -m0
  Conclusion: CDDA 100%
  Signature: 2577E7DAA2E31597C159119863DBD4EC1A84797A
FILE: 01 So Lonely.flac
  Size: 29403622 Hash: 5AB5A466566D0C7E38842E5F2E9F8874 Accuracy: -m0
  Conclusion: CDDA 99%
  Signature: E72106DA1A184122B38F5D514D0A297949B3D0E2
Код:
foobar2000 1.2.9 / Dynamic Range Meter 1.1.1
log date: 2018-07-08 15:42:53
--------------------------------------------------------------------------------
Analyzed: Waltham / Permission to Build
--------------------------------------------------------------------------------
DR         Peak         RMS     Duration Track
--------------------------------------------------------------------------------
DR5       -0.10 dB    -6.06 dB      3:41 01-So Lonely
DR6       -0.10 dB    -6.79 dB      3:28 02-All I Want Is You
DR6       -0.10 dB    -7.12 dB      3:42 03-Cheryl
DR6       -0.10 dB    -6.82 dB      3:49 04-Don't Say It's Too Late
DR6       -0.10 dB    -6.91 dB      2:53 05-Hopeless
DR6        0.00 dB    -6.74 dB      4:15 06-Back to You
DR6       -0.10 dB    -6.75 dB      3:48 07-Hook Me Up (With Your Friend)
DR5       -0.10 dB    -5.70 dB      2:34 08-Maria Simeone
DR5       -0.10 dB    -6.74 dB      3:13 09-Nicole
DR6       -0.10 dB    -7.27 dB      3:41 10-Laura
DR5       -0.10 dB    -7.40 dB      5:31 11-Say It Again
DR5       -0.10 dB    -6.30 dB      8:18 12-Feelin' It/Wake Up
--------------------------------------------------------------------------------
Number of tracks:  12
Official DR value: DR5
Samplerate:        44100 Hz
Channels:          2
Bits per sample:   16
Bitrate:           982 kbps
Codec:             FLAC
================================================================================
Не пропадать же скачанному "добру" с буржуйского трекера?). Может кому и зайдет. Мне не зашел.
Правила, инструкции, FAQ!!!
Торрент  Добавлен [26 мар 2019, 21:05] Скачать торрент Магнет ссылка
Скачать торрент
[ Размер 18.09 КБ / Просмотров 0 ]

Статус
Проверен 
 
Размер  425 МБ
Приватный: Нет (DHT включён)
.torrent скачан  0
 


     Отправить личное сообщение
   
Страница 1 из 1
Показать сообщения за:  Поле сортировки  
Начать новую тему Ответить на тему


Сейчас этот форум просматривают: нет зарегистрированных пользователей и гости: 0


Вы не можете начинать темы
Вы не можете отвечать на сообщения
Вы не можете редактировать свои сообщения
Вы не можете удалять свои сообщения
Вы не можете добавлять вложения

Перейти:  
cron