Начать новую тему Ответить на тему
Статистика раздачи
Размер: 306.2 МБ | Добавлен: 26 мар 2019, 18:40 | Скачали: 0
Сидеров: 0  [0 байт/сек]    Личеров: 0  [0 байт/сек]
Пред. тема | След. тема 

Автор
Сообщение

СообщениеДобавлено: 26 мар 2019, 18:40 

Ответить с цитатой 

Judy Bailey / The Way We Are
Жанр: Rock, Reggae, Pop
Носитель: CD
Страна-производитель диска (релиза): Germany
Год издания: 1999
Издатель (лейбл): Felsenfest Musikverlag
Номер по каталогу: 943253
Аудиокодек: FLAC (*.flac)
Тип рипа: tracks+.cue
Битрейт аудио: lossless
Продолжительность: 0:47:32.
Источник (релизер): clustert
Наличие сканов в содержимом раздачи: да
Треклист:
01. Just To See Ya [0:05:21.32]
02. Near To My God [0:03:19.43]
03. Willing To Find [0:03:37.16]
04. Everybody Can Feel [0:03:20.72]
05. Alright OK [0:03:39.20]
06. Only Free In Dreams [0:03:51.31]
07. Please Let Me In [0:05:03.52]
08. The Heart - Warrior.Worrier [0:04:55.07]
09. Every Single Day [0:03:19.34]
10. Susi [0:04:40.62]
11. The Way We Are [0:06:23.22]
Код:
Exact Audio Copy V1.0 beta 3 from 29. August 2011
Отчёт EAC об извлечении, выполненном 25. января 2015, 22:11
Judy Bailey / The Way We Are
Дисковод: ASUS    DRW-1814BLT   Adapter: 4  ID: 0
Режим чтения                 : Достоверность
Использование точного потока : Да
Отключение кэша аудио        : Да
Использование указателей C2  : Нет
Коррекция смещения при чтении                     : 6
Способность читать области Lead-in и Lead-out     : Нет
Заполнение пропущенных сэмплов тишиной            : Да
Удаление блоков с тишиной в начале и конце        : Нет
При вычислениях CRC использовались нулевые сэмплы : Да
Интерфейс                                         : Встроенный Win32-интерфейс для Win NT/2000
Обработка зазоров                                 : Добавлено к предыдущему треку
Выходной формат          : Пользовательский кодировщик
Выбранный битрейт        : 128 kBit/s
Качество                 : Высокий
Добавление ID3-тега      : Нет
Утилита сжатия           : C:\Program Files\Exact Audio Copy\Flac\flac.exe
Дополнительные параметры :  -V -8 -T "Genre=%genre%" -T "Artist=%artist%" -T "Title=%title%" -T "Album=%albumtitle%" -T "Date=%year%" -T "Tracknumber=%tracknr%" -T "Comment=EAC1.0b2 FLAC -8" %source%
TOC извлечённого CD
     Трек |   Старт  | Длительность | Начальный сектор | Конечный сектор
    ---------------------------------------------------------------------
       1  |  0:00.00 |    5:21.32   |           0      |      24106
       2  |  5:21.32 |    3:19.43   |       24107      |      39074
       3  |  8:41.00 |    3:37.16   |       39075      |      55365
       4  | 12:18.16 |    3:20.72   |       55366      |      70437
       5  | 15:39.13 |    3:39.20   |       70438      |      86882
       6  | 19:18.33 |    3:51.31   |       86883      |     104238
       7  | 23:09.64 |    5:03.52   |      104239      |     127015
       8  | 28:13.41 |    4:55.07   |      127016      |     149147
       9  | 33:08.48 |    3:19.34   |      149148      |     164106
      10  | 36:28.07 |    4:40.62   |      164107      |     185168
      11  | 41:08.69 |    6:23.22   |      185169      |     213915
Трек  1
     Имя файла R:\Раздача 33\Judy Bailey - 1999 - The Way We Are\01 Just To See Ya.wav
     Длина предзазора  0:00:02.00
     Пиковый уровень 97.3 %
     Скорость извлечения 5.3 X
     Качество трека 100.0 %
     CRC теста AC99A17E
     CRC копии AC99A17E
     Точное извлечение (достоверность 3)  [30EEAC44]  (AR v2)
     Копирование... OK
Трек  2
     Имя файла R:\Раздача 33\Judy Bailey - 1999 - The Way We Are\02 Near To My God.wav
     Длина предзазора  0:00:02.05
     Пиковый уровень 98.2 %
     Скорость извлечения 5.5 X
     Качество трека 100.0 %
     CRC теста 317DF3B1
     CRC копии 317DF3B1
     Точное извлечение (достоверность 3)  [B695A58B]  (AR v2)
     Копирование... OK
Трек  3
     Имя файла R:\Раздача 33\Judy Bailey - 1999 - The Way We Are\03 Willing To Find.wav
     Длина предзазора  0:00:03.36
     Пиковый уровень 96.9 %
     Скорость извлечения 6.0 X
     Качество трека 100.0 %
     CRC теста 2208C095
     CRC копии 2208C095
     Точное извлечение (достоверность 3)  [B06AF2E7]  (AR v2)
     Копирование... OK
Трек  4
     Имя файла R:\Раздача 33\Judy Bailey - 1999 - The Way We Are\04 Everybody Can Feel.wav
     Длина предзазора  0:00:02.08
     Пиковый уровень 87.0 %
     Скорость извлечения 6.3 X
     Качество трека 100.0 %
     CRC теста 812A4A84
     CRC копии 812A4A84
     Точное извлечение (достоверность 3)  [43C8BEAB]  (AR v2)
     Копирование... OK
Трек  5
     Имя файла R:\Раздача 33\Judy Bailey - 1999 - The Way We Are\05 Alright OK.wav
     Длина предзазора  0:00:02.07
     Пиковый уровень 100.0 %
     Скорость извлечения 6.8 X
     Качество трека 100.0 %
     CRC теста 46ECE31E
     CRC копии 46ECE31E
     Точное извлечение (достоверность 3)  [F7606507]  (AR v2)
     Копирование... OK
Трек  6
     Имя файла R:\Раздача 33\Judy Bailey - 1999 - The Way We Are\06 Only Free In Dreams.wav
     Длина предзазора  0:00:00.12
     Пиковый уровень 98.9 %
     Скорость извлечения 5.3 X
     Качество трека 99.9 %
     CRC теста A4CB6DA4
     CRC копии A4CB6DA4
     Точное извлечение (достоверность 3)  [B842478E]  (AR v2)
     Копирование... OK
Трек  7
     Имя файла R:\Раздача 33\Judy Bailey - 1999 - The Way We Are\07 Please Let Me In.wav
     Длина предзазора  0:00:02.09
     Пиковый уровень 100.0 %
     Скорость извлечения 7.8 X
     Качество трека 100.0 %
     CRC теста F5044A3A
     CRC копии F5044A3A
     Точное извлечение (достоверность 3)  [734D1C0E]  (AR v2)
     Копирование... OK
Трек  8
     Имя файла R:\Раздача 33\Judy Bailey - 1999 - The Way We Are\08 The Heart - Warrior.Worrier.wav
     Длина предзазора  0:00:02.03
     Пиковый уровень 98.8 %
     Скорость извлечения 8.1 X
     Качество трека 100.0 %
     CRC теста A36B844A
     CRC копии A36B844A
     Точное извлечение (достоверность 3)  [66C24B1B]  (AR v2)
     Копирование... OK
Трек  9
     Имя файла R:\Раздача 33\Judy Bailey - 1999 - The Way We Are\09 Every Single Day.wav
     Длина предзазора  0:00:02.12
     Пиковый уровень 78.1 %
     Скорость извлечения 8.1 X
     Качество трека 100.0 %
     CRC теста FCF9E6DC
     CRC копии FCF9E6DC
     Точное извлечение (достоверность 3)  [22E16A52]  (AR v2)
     Копирование... OK
Трек 10
     Имя файла R:\Раздача 33\Judy Bailey - 1999 - The Way We Are\10 Susi.wav
     Длина предзазора  0:00:01.71
     Пиковый уровень 98.4 %
     Скорость извлечения 6.7 X
     Качество трека 99.9 %
     CRC теста D198750C
     CRC копии D198750C
     Точное извлечение (достоверность 3)  [94A58F2F]  (AR v2)
     Копирование... OK
Трек 11
     Имя файла R:\Раздача 33\Judy Bailey - 1999 - The Way We Are\11 The Way We Are.wav
     Длина предзазора  0:00:02.06
     Пиковый уровень 98.2 %
     Скорость извлечения 9.5 X
     Качество трека 100.0 %
     CRC теста 8E00C32A
     CRC копии 8E00C32A
     Точное извлечение (достоверность 3)  [3615F510]  (AR v2)
     Копирование... OK
Все треки извлечены точно
Ошибок не произошло
Конец отчёта
==== Контрольная сумма отчёта CACBBD26DE765F627EBAB177A71AB93565BB3CE07D193A74E008918DF2F99FB4 ====
Код:
REM DATE 1999
REM DISCID 840B240B
REM COMMENT "ExactAudioCopy v1.0b3"
PERFORMER "Judy Bailey"
TITLE "The Way We Are"
FILE "01 Just To See Ya.wav" WAVE
  TRACK 01 AUDIO
    TITLE "Just To See Ya"
    PERFORMER "Judy Bailey"
    ISRC <cT459900001
    INDEX 01 00:00:00
  TRACK 02 AUDIO
    TITLE "Near To My God"
    PERFORMER "Judy Bailey"
    ISRC <cT459900002
    INDEX 00 05:19:27
FILE "02 Near To My God.wav" WAVE
    INDEX 01 00:00:00
  TRACK 03 AUDIO
    TITLE "Willing To Find"
    PERFORMER "Judy Bailey"
    ISRC <cT459900003
    INDEX 00 03:16:07
FILE "03 Willing To Find.wav" WAVE
    INDEX 01 00:00:00
  TRACK 04 AUDIO
    TITLE "Everybody Can Feel"
    PERFORMER "Judy Bailey"
    ISRC <cT459900004
    INDEX 00 03:35:08
FILE "04 Everybody Can Feel.wav" WAVE
    INDEX 01 00:00:00
  TRACK 05 AUDIO
    TITLE "Alright OK"
    PERFORMER "Judy Bailey"
    ISRC <cT459900005
    INDEX 00 03:18:65
FILE "05 Alright OK.wav" WAVE
    INDEX 01 00:00:00
  TRACK 06 AUDIO
    TITLE "Only Free In Dreams"
    PERFORMER "Judy Bailey"
    ISRC <cT459900006
    INDEX 00 03:39:08
FILE "06 Only Free In Dreams.wav" WAVE
    INDEX 01 00:00:00
  TRACK 07 AUDIO
    TITLE "Please Let Me In"
    PERFORMER "Judy Bailey"
    ISRC <cT459900007
    INDEX 00 03:49:22
FILE "07 Please Let Me In.wav" WAVE
    INDEX 01 00:00:00
  TRACK 08 AUDIO
    TITLE "The Heart - Warrior.Worrier"
    PERFORMER "Judy Bailey"
    ISRC <cT459900008
    INDEX 00 05:01:49
FILE "08 The Heart - Warrior.Worrier.wav" WAVE
    INDEX 01 00:00:00
  TRACK 09 AUDIO
    TITLE "Every Single Day"
    PERFORMER "Judy Bailey"
    ISRC <cT459900009
    INDEX 00 04:52:70
FILE "09 Every Single Day.wav" WAVE
    INDEX 01 00:00:00
  TRACK 10 AUDIO
    TITLE "Susi"
    PERFORMER "Judy Bailey"
    ISRC <cT459900010
    INDEX 00 03:17:38
FILE "10 Susi.wav" WAVE
    INDEX 01 00:00:00
  TRACK 11 AUDIO
    TITLE "The Way We Are"
    PERFORMER "Judy Bailey"
    ISRC <cT459900011
    INDEX 00 04:38:56
FILE "11 The Way We Are.wav" WAVE
    INDEX 01 00:00:00
Правила, инструкции, FAQ!!!
Торрент  Добавлен [26 мар 2019, 18:40] Скачать торрент Магнет ссылка
Скачать торрент
[ Размер 13.97 КБ / Просмотров 0 ]

Статус
Проверен 
 
Размер  306.2 МБ
Приватный: Нет (DHT включён)
.torrent скачан  0
 


     Отправить личное сообщение
   
Страница 1 из 1
Показать сообщения за:  Поле сортировки  
Начать новую тему Ответить на тему


Сейчас этот форум просматривают: нет зарегистрированных пользователей и гости: 0


Вы не можете начинать темы
Вы не можете отвечать на сообщения
Вы не можете редактировать свои сообщения
Вы не можете удалять свои сообщения
Вы не можете добавлять вложения

Перейти:  
cron