Начать новую тему Ответить на тему
Статистика раздачи
Размер: 373.2 МБ | Добавлен: 26 мар 2019, 19:56 | Скачали: 0
Сидеров: 2  [0 байт/сек]    Личеров: 0  [0 байт/сек]
Пред. тема | След. тема 

Автор
Сообщение

СообщениеДобавлено: 26 мар 2019, 19:56 

Ответить с цитатой 

Reamonn-Wish(Live)

Жанр: Rock
Год выпуска диска: 2007
Производитель диска: Россия-лицензия.
Аудио кодек: APE
Тип рипа: image+.cue
Битрейт аудио: lossless
Продолжительность: 1:05:66 h:m:s.
Трэклист:
Reamonn - Wish (Live)
01. Reamonn - Intro (Wish) (Live) [0:00:43.59]
02. Reamonn - Starting To Live (Live) [0:04:02.67]
03. Reamonn - Come To Me (Live) [0:05:06.27]
04. Reamonn - Promise (You And Me) (Live) [0:04:51.70]
05. Reamonn - Wish (Live) [0:03:47.41]
06. Reamonn - Starship (Live) [0:05:26.30]
07. Reamonn - Tonight (Live) [0:05:17.39]
08. Reamonn - Sometimes (Live) [0:05:49.14]
09. Reamonn - Out Of Reach (Live) [0:04:58.11]
10. Reamonn - She's A Bomb (Live) [0:06:35.39]
11. Reamonn - Serpentine (Live) [0:07:38.65]
12. Reamonn - The Only Ones (With Lucie Silvas) (Live) [0:04:47.68]
13. Alright - Multimedia Track [0:06:50.61]
Exact Audio Copy V0.99 prebeta 5 from 4. May 2009
Отчёт EAC об извлечении, выполненном 7. июня 2009, 3:17
Reamonn / Wish (Live)
Дисковод: ASUS DRW-1612BL Adapter: 1 ID: 0
Режим чтения : Достоверность
Использование точного потока : Да
Отключение кэша аудио : Да
Использование указателей C2 : Нет
Коррекция смещения при чтении : 6
Способность читать области Lead-in и Lead-out : Нет
Заполнение пропущенных сэмплов тишиной : Да
Удаление блоков с тишиной в начале и конце : Нет
При вычислениях CRC использовались нулевые сэмплы : Да
Интерфейс : Установленный внешний ASPI-интерфейс
Выходной формат : Внутренние WAV-операции
Формат сэмплов : 44.100 Гц; 16 бит; стерео
TOC извлечённого CD
Трек | Старт | Длительность | Начальный сектор | Конечный сектор
---------------------------------------------------------------------
1 | 0:00.00 | 0:43.59 | 0 | 3283
2 | 0:43.59 | 4:02.67 | 3284 | 21500
3 | 4:46.51 | 5:06.27 | 21501 | 44477
4 | 9:53.03 | 4:51.70 | 44478 | 66372
5 | 14:44.73 | 3:47.41 | 66373 | 83438
6 | 18:32.39 | 5:26.30 | 83439 | 107918
7 | 23:58.69 | 5:17.39 | 107919 | 131732
8 | 29:16.33 | 5:49.14 | 131733 | 157921
9 | 35:05.47 | 4:58.11 | 157922 | 180282
10 | 40:03.58 | 6:35.39 | 180283 | 209946
11 | 46:39.22 | 7:38.65 | 209947 | 244361
12 | 54:18.12 | 4:47.68 | 244362 | 265954
13 | 61:38.05 | 6:50.61 | 277355 | 308165
Характеристики диапазона извлечения и сообщения об ошибках
Выбранный диапазон
Имя файла C:\Music lossless\Reamonn - Wish (Live).wav
Пиковый уровень 98.9 %
Качество диапазона 100.0 %
CRC копии A2EA0C5E
Копирование... OK
Ошибок не произошло
AccurateRip: сводка
Трек 1 точное извлечение (доверие 2) [5973116A]
Трек 2 точное извлечение (доверие 2) [CC856EC1]
Трек 3 точное извлечение (доверие 2) [994AB823]
Трек 4 точное извлечение (доверие 2) [457A68FB]
Трек 5 точное извлечение (доверие 2) [1A16B935]
Трек 6 точное извлечение (доверие 2) [D1C0AF60]
Трек 7 точное извлечение (доверие 2) [DAED6778]
Трек 8 точное извлечение (доверие 2) [64F5F520]
Трек 9 точное извлечение (доверие 2) [F00D3FED]
Трек 10 точное извлечение (доверие 2) [3F94AAE0]
Трек 11 точное извлечение (доверие 2) [7087E87C]
Трек 12 точное извлечение (доверие 2) [B36F4EE3]
Все треки извлечены точно
Конец отчёта
Доп. информация: 13. Alright - Multimedia Track [0:06:50.61]
Правила, инструкции, FAQ!!!
Торрент  Добавлен [26 мар 2019, 19:56] Скачать торрент Магнет ссылка
Скачать торрент
[ Размер 15.49 КБ / Просмотров 12 ]

Статус
Проверен 
 
Размер  373.2 МБ
Приватный: Нет (DHT включён)
.torrent скачан  0
 


     Отправить личное сообщение
   
Страница 1 из 1
Показать сообщения за:  Поле сортировки  
Начать новую тему Ответить на тему


Сейчас этот форум просматривают: нет зарегистрированных пользователей и гости: 0


Вы не можете начинать темы
Вы не можете отвечать на сообщения
Вы не можете редактировать свои сообщения
Вы не можете удалять свои сообщения
Вы не можете добавлять вложения

Перейти:  
cron