Начать новую тему Ответить на тему
Статистика раздачи
Размер: 222.86 МБ | Добавлен: 26 мар 2019, 19:56 | Скачали: 0
Сидеров: 0  [0 байт/сек]    Личеров: 0  [0 байт/сек]
Пред. тема | След. тема 

Автор
Сообщение

СообщениеДобавлено: 26 мар 2019, 19:56 

Ответить с цитатой 

Anouk / Sad Singalong Songs
Жанр: Rock, progressive rock, symphonic rock
Носитель: CD
Страна-производитель диска: Germany
Год издания: 2013
Издатель (лейбл): Goldilox Music
Номер по каталогу: 373 724-9
Страна: Holland
Аудиокодек: FLAC (*.flac)
Тип рипа: image+.cue
Битрейт аудио: lossless
Продолжительность: 00:38:40
Источник (релизер): Диск из собственной коллекции
Наличие сканов в содержимом раздачи: нет
Треклист:
01. The Rules (03:58)
02. Pretending As Always (03:50)
03. Birds (03:23)
04. The Good Life (03:31)
05. Are You Lonely (03:29)
06. Stardust (03:31)
07. Only A Mother (03:54)
08. Kill (04:15)
09. I Don't Know Nothing (03:32)
10. The Black Side Of My Mind (05:14)
Код:
Exact Audio Copy V1.0 beta 3 from 29. August 2011
EAC extraction logfile from 4. February 2014, 21:59
Anouk / Sad Singalongs Songs
Used drive  : HL-DT-STDVDRAM GT51N   Adapter: 0  ID: 1
Read mode               : Secure
Utilize accurate stream : Yes
Defeat audio cache      : Yes
Make use of C2 pointers : No
Read offset correction                      : 103
Overread into Lead-In and Lead-Out          : No
Fill up missing offset samples with silence : Yes
Delete leading and trailing silent blocks   : No
Null samples used in CRC calculations       : Yes
Used interface                              : Native Win32 interface for Win NT & 2000
Used output format              : User Defined Encoder
Selected bitrate                : 128 kBit/s
Quality                         : High
Add ID3 tag                     : No
Command line compressor         : C:\Program Files (x86)\Exact Audio Copy\Flac\flac.exe
Additional command line options : -V -8 -T "Date=%year%" -T "Genre=%genre%" %source%
TOC of the extracted CD
     Track |   Start  |  Length  | Start sector | End sector
    ---------------------------------------------------------
        1  |  0:00.00 |  3:58.33 |         0    |    17882
        2  |  3:58.33 |  3:49.70 |     17883    |    35127
        3  |  7:48.28 |  3:23.02 |     35128    |    50354
        4  | 11:11.30 |  3:31.44 |     50355    |    66223
        5  | 14:42.74 |  3:28.60 |     66224    |    81883
        6  | 18:11.59 |  3:31.42 |     81884    |    97750
        7  | 21:43.26 |  3:54.41 |     97751    |   115341
        8  | 25:37.67 |  4:15.23 |    115342    |   134489
        9  | 29:53.15 |  3:32.47 |    134490    |   150436
       10  | 33:25.62 |  5:14.04 |    150437    |   173990
Range status and errors
Selected range
     Filename D:\Anouk - Sad Singalongs Songs.wav
     Peak level 98.8 %
     Extraction speed 4.4 X
     Range quality 100.0 %
     Test CRC B5D66D3E
     Copy CRC B5D66D3E
     Copy OK
No errors occurred
AccurateRip summary
Track  1  accurately ripped (confidence 20)  [EFF6B27F]  (AR v2)
Track  2  accurately ripped (confidence 20)  [896B6220]  (AR v2)
Track  3  accurately ripped (confidence 20)  [0B56C61D]  (AR v2)
Track  4  accurately ripped (confidence 20)  [3CC9241E]  (AR v2)
Track  5  accurately ripped (confidence 20)  [69DB740E]  (AR v2)
Track  6  accurately ripped (confidence 20)  [605965DC]  (AR v2)
Track  7  accurately ripped (confidence 20)  [F323F431]  (AR v2)
Track  8  accurately ripped (confidence 20)  [D9D96976]  (AR v2)
Track  9  accurately ripped (confidence 20)  [BCF09BED]  (AR v2)
Track 10  accurately ripped (confidence 19)  [C5E1C00A]  (AR v2)
All tracks accurately ripped
End of status report
==== Log checksum ED1DB04F4836E5D52981F403A3590B5FECDC24AADDA8AC61B52C6664E8987861 ====
Код:
REM GENRE "Rock, progressive rock, symphonic rock"
REM DATE 2013
REM DISCID 7E090F0A
REM COMMENT "ExactAudioCopy v1.0b3"
PERFORMER "Anouk"
TITLE "Sad Singalongs Songs"
FILE "Anouk - Sad Singalongs Songs.flac" WAVE
  TRACK 01 AUDIO
    TITLE "The Rules"
    PERFORMER "Anouk"
    INDEX 01 00:00:00
  TRACK 02 AUDIO
    TITLE "Pretending As Always"
    PERFORMER "Anouk"
    INDEX 01 03:58:33
  TRACK 03 AUDIO
    TITLE "Birds Falling Down"
    PERFORMER "Anouk"
    INDEX 01 07:48:28
  TRACK 04 AUDIO
    TITLE "The Good Life"
    PERFORMER "Anouk"
    INDEX 01 11:11:30
  TRACK 05 AUDIO
    TITLE "Are You Lonely"
    PERFORMER "Anouk"
    INDEX 01 14:42:74
  TRACK 06 AUDIO
    TITLE "Stardust"
    PERFORMER "Anouk"
    INDEX 01 18:11:59
  TRACK 07 AUDIO
    TITLE "Only A Mother"
    PERFORMER "Anouk"
    INDEX 01 21:43:26
  TRACK 08 AUDIO
    TITLE "Dont Kill That Man"
    PERFORMER "Anouk"
    INDEX 01 25:37:67
  TRACK 09 AUDIO
    TITLE "I Dont Know Nothing"
    PERFORMER "Anouk"
    INDEX 01 29:53:15
  TRACK 10 AUDIO
    TITLE "Dark Side Of My Mind"
    PERFORMER "Anouk"
    INDEX 01 33:25:62
Правила, инструкции, FAQ!!!
Торрент  Добавлен [26 мар 2019, 19:56] Скачать торрент Магнет ссылка
Скачать торрент
[ Размер 18.05 КБ / Просмотров 7 ]

Статус
Проверен 
 
Размер  222.86 МБ
Приватный: Нет (DHT включён)
.torrent скачан  0
 


     Отправить личное сообщение
   
Страница 1 из 1
Показать сообщения за:  Поле сортировки  
Начать новую тему Ответить на тему


Сейчас этот форум просматривают: нет зарегистрированных пользователей и гости: 0


Вы не можете начинать темы
Вы не можете отвечать на сообщения
Вы не можете редактировать свои сообщения
Вы не можете удалять свои сообщения
Вы не можете добавлять вложения

Перейти:  
cron