Начать новую тему Ответить на тему
Статистика раздачи
Размер: 422.89 МБ | Добавлен: 26 мар 2019, 20:46 | Скачали: 0
Сидеров: 0  [0 байт/сек]    Личеров: 0  [0 байт/сек]
Пред. тема | След. тема 

Автор
Сообщение

СообщениеДобавлено: 26 мар 2019, 20:46 

Ответить с цитатой 

Nino Ferrer - vol.1 Metronomie: Veritables Varietes Verdatres
#777Жанр: Rock / Progressive Rock / Blues / Jazz
Год выпуска диска: 1972
Производитель диска: Франция
Аудио кодек: APE
Тип рипа: image+.cue
Битрейт аудио: lossless
Продолжительность: 70:24
Трэклист:
01. Métronomie (N. Ferrer, G. Giombolini, S. Rochetti) - 9:04
02. Les enfants de la patrie (N. Ferrer) - 4:55
03. Métronomie II (N. Ferrer, G. Giombolini, S. Rochetti) - 2:18
04. Cannabis (N. Ferrer, D. Beretta) - 4:44
05. La maison près de la fontaine (N. Ferrer) - 3:43
06. Isabelle (N. Ferrer) - 2:28
07. Freak (A. Reeves, N. Ferrer) - 1:28
08. Pour oublier qu'on s'est aimé (N. Ferrer) - 3:26
+
09. Ouessant (N. Ferrer) - 6:42
10. Il pleut bergère (Fabre d'Eglantine, N. Ferrer) - 4:11
11. Joseph Joseph (S. Cahn, S. Chaplin, N. Casman) - 2:46
12. Ah! les Américains (E. Bazin, G. Theodore) - 4:52
13. On passe trop de temps (R. Bennett, L. Gudmundssonn) - 1:18
14. Mashed potatoes (D. Rozier) - 3:47
15. L'inexpressible (N. Ferrer) - 2:35
16. Sud express (P. Debarge) - 4:52
17. Valentin (N. Ferrer) - 6:50
Доп. информация: После успешных хитов 1960-ых (Mirza, Les Cornichons, Le Téléfon, Ho! Hé! Hein! Bon!) Феррер стал весьма популярен, но воспринимался публикой как певец-клоун. И Нино выпустил Métronomie в качестве первого "серьезного" альбома. В стиле своего времени, альбом был задуман как некий эксперимент, с музыкой, сопровождаемой звуковыми эффектами, хотя при этом включал и новую версию его самого первого сингла Pour oublier qu’on s’est aimé. Однако, это не была "пластинка одного хита". В альбоме смешаны такие направления как пргрессив, джаз, ритм & блюз и даже фанк. Длинные инструментальные партии дополняются ритмичными роковыми пассажами.
Exact Audio Copy V0.99 prebeta 4 from 23. January 2008
EAC extraction logfile from 14. April 2009, 9:54
Nino Ferrer / Vol.1 - Mйtronomie - Vйritables Variйtйs Verdвtres
Used drive : HL-DT-STDVDRAM GSA-H10N Adapter: 0 ID: 0
Read mode : Secure
Utilize accurate stream : Yes
Defeat audio cache : Yes
Make use of C2 pointers : No
Read offset correction : 667
Overread into Lead-In and Lead-Out : No
Fill up missing offset samples with silence : Yes
Delete leading and trailing silent blocks : No
Null samples used in CRC calculations : Yes
Used interface : Native Win32 interface for Win NT & 2000
Used output format : Internal WAV Routines
Sample format : 44.100 Hz; 16 Bit; Stereo
TOC of the extracted CD
Track | Start | Length | Start sector | End sector
---------------------------------------------------------
1 | 0:00.32 | 9:05.15 | 32 | 40921
2 | 9:05.47 | 4:55.05 | 40922 | 63051
3 | 14:00.52 | 2:19.25 | 63052 | 73501
4 | 16:20.02 | 4:44.50 | 73502 | 94851
5 | 21:04.52 | 3:45.63 | 94852 | 111789
6 | 24:50.40 | 2:28.30 | 111790 | 122919
7 | 27:18.70 | 1:28.50 | 122920 | 129569
8 | 28:47.45 | 3:27.37 | 129570 | 145131
9 | 32:15.07 | 6:39.20 | 145132 | 175076
10 | 38:54.27 | 4:16.00 | 175077 | 194276
11 | 43:10.27 | 2:45.60 | 194277 | 206711
12 | 45:56.12 | 4:52.03 | 206712 | 228614
13 | 50:48.15 | 1:18.20 | 228615 | 234484
14 | 52:06.35 | 3:53.47 | 234485 | 252006
15 | 56:00.07 | 2:39.38 | 252007 | 263969
16 | 58:39.45 | 4:52.40 | 263970 | 285909
17 | 63:32.10 | 6:52.22 | 285910 | 316831
Range status and errors
Selected range
Filename C:\Documents and Settings\sbesson\Bureau\Nino Ferrer - Vol.1 - Mйtronomie - Vйritables Variйtйs Verdвtres.wav
Suspicious position 1:05:42
Peak level 97.7 %
Range quality 99.9 %
Copy CRC 1117442F
Copy finished
There were errors
AccurateRip summary
Track 1 not present in database
Track 2 not present in database
Track 3 not present in database
Track 4 not present in database
Track 5 not present in database
Track 6 not present in database
Track 7 not present in database
Track 8 not present in database
Track 9 not present in database
Track 10 not present in database
Track 11 not present in database
Track 12 not present in database
Track 13 not present in database
Track 14 not present in database
Track 15 not present in database
Track 16 not present in database
Track 17 not present in database
None of the tracks are present in the AccurateRip database
End of status report
Правила, инструкции, FAQ!!!
Торрент  Добавлен [26 мар 2019, 20:46] Скачать торрент Магнет ссылка
Скачать торрент
[ Размер 34.59 КБ / Просмотров 6 ]

Статус
Проверен 
 
Размер  422.89 МБ
Приватный: Нет (DHT включён)
.torrent скачан  0
 


     Отправить личное сообщение
   
Страница 1 из 1
Показать сообщения за:  Поле сортировки  
Начать новую тему Ответить на тему


Сейчас этот форум просматривают: нет зарегистрированных пользователей и гости: 0


Вы не можете начинать темы
Вы не можете отвечать на сообщения
Вы не можете редактировать свои сообщения
Вы не можете удалять свои сообщения
Вы не можете добавлять вложения

Перейти:  
cron