Начать новую тему Ответить на тему
Статистика раздачи
Размер: 308.35 МБ | Добавлен: 26 мар 2019, 20:02 | Скачали: 2
Сидеров: 0  [0 байт/сек]    Личеров: 0  [0 байт/сек]
Пред. тема | След. тема 

Автор
Сообщение

СообщениеДобавлено: 26 мар 2019, 20:02 

Ответить с цитатой 

The Rubinoos - Anthology - 2000
Жанр: Rock, Power Pop
Носитель: CD
Страна-производитель диска: UK
Год первого выпуска: 2000
Год настоящего издания: 2000
Издатель (лейбл): Beserkley
Номер по каталогу: ESM CD 868
Format: CD, Compilation
Страна исполнителя (группы): US
Аудиокодек: FLAC (*.flac)
Тип рипа: tracks+.cue
Битрейт аудио: lossless
Продолжительность:
Источник (релизер): What.CD
Наличие сканов в содержимом раздачи: невысокого качества
Треклист:
01. Memories (05:32)
02. Nothing A Little Love Won't Cure (02:41)
03. Wouldn't It Be Nice
(03:25)
04. Make It Easy (03:07)
05. I Never Thought It Would Happen (02:35)
06. I Think We're Alone Now (02:55)
07. Leave My Heart Alone (02:39)
08. Hard To Get (03:04)
09. Peek-A-Boo
(02:12)
10. Rock 'n' Roll Is Dead (02:54)
11. Fall In Love (02:48)
12. I Wanna Be Your Boyfriend (03:18)
13. Lightning Love Affair (02:44)
14. Drivin' Music (03:14)
15. Jennifer (02:29)
16. 1,2,3, Forever (02:41)
Код:
X Lossless Decoder version 20101010 (123.3)
XLD extraction logfile from 2010-10-21 21:28:20 -0400
The Rubinoos / Anthology
Used drive : MATSHITA DVD-R   UJ-867 (revision HA13)
Use cdparanoia mode     : YES (CDParanoia III 10.2 engine)
Disable audio cache     : OK for the drive with cache less than 2750KB
Make use of C2 pointers : NO
Read offset correction  : 102
Max retry count         : 100
Gap status              : Analyzed, Appended
TOC of the extracted CD
     Track |   Start  |  Length  | Start sector | End sector
    ---------------------------------------------------------
        1  | 00:00:00 | 05:32:67 |         0    |    24966
        2  | 05:32:67 | 02:41:53 |     24967    |    37094
        3  | 08:14:45 | 03:25:62 |     37095    |    52531
        4  | 11:40:32 | 03:07:43 |     52532    |    66599
        5  | 14:48:00 | 02:35:67 |     66600    |    78291
        6  | 17:23:67 | 02:55:25 |     78292    |    91441
        7  | 20:19:17 | 02:39:73 |     91442    |   103439
        8  | 22:59:15 | 03:04:22 |    103440    |   117261
        9  | 26:03:37 | 02:12:55 |    117262    |   127216
       10  | 28:16:17 | 02:54:03 |    127217    |   140269
       11  | 31:10:20 | 02:48:52 |    140270    |   152921
       12  | 33:58:72 | 03:18:73 |    152922    |   167844
       13  | 37:17:70 | 02:44:42 |    167845    |   180186
       14  | 40:02:37 | 03:14:60 |    180187    |   194796
       15  | 43:17:22 | 02:29:10 |    194797    |   205981
       16  | 45:46:32 | 02:41:30 |    205982    |   218086
List of alternate offset correction values
        #  | Absolute | Relative | Confidence
    ------------------------------------------
        1  |    766   |    664   |      1
All Tracks
    Album gain             : -6.64 dB
    Peak                   : 1.000000
Track 01
    Filename : /Users/User/VuzeData/The Rubinoos - Anthology [2000] FLAC/01 - Memories.flac
    Pre-gap length : 00:02:00
    Track gain             : -4.86 dB
    Peak                   : 0.949036
    CRC32 hash (test run)  : 609C574D
    CRC32 hash             : 609C574D
    CRC32 hash (skip zero) : 5482C648
    AccurateRip signature  : 667A4D0F
        ->Accurately ripped! (confidence 1)
          (matched with the different offset correction value;
           calculated using an additional offset of 664;
           the signature after correction is: B31EBEFF)
    Statistics
        Read error                           : 0
        Skipped (treated as error)           : 0
        Edge jitter error (maybe fixed)      : 0
        Atom jitter error (maybe fixed)      : 0
        Drift error (maybe fixed)            : 0
        Dropped bytes error (maybe fixed)    : 0
        Duplicated bytes error (maybe fixed) : 0
        Inconsistency in error sectors       : 0
Track 02
    Filename : /Users/User/VuzeData/The Rubinoos - Anthology [2000] FLAC/02 - Nothing A Little Love Won't Cure.flac
    Track gain             : -6.35 dB
    Peak                   : 0.997253
    CRC32 hash (test run)  : 42AB3281
    CRC32 hash             : 42AB3281
    CRC32 hash (skip zero) : 1DF1E588
    AccurateRip signature  : 8B6BF27F
        ->Accurately ripped! (confidence 1)
          (matched with the different offset correction value;
           calculated using an additional offset of 664;
           the signature after correction is: 968B728F)
    Statistics
        Read error                           : 0
        Skipped (treated as error)           : 0
        Edge jitter error (maybe fixed)      : 0
        Atom jitter error (maybe fixed)      : 0
        Drift error (maybe fixed)            : 0
        Dropped bytes error (maybe fixed)    : 0
        Duplicated bytes error (maybe fixed) : 0
        Inconsistency in error sectors       : 0
Track 03
    Filename : /Users/User/VuzeData/The Rubinoos - Anthology [2000] FLAC/03 - Wouldn't It Be Nice.flac
    Pre-gap length : 00:01:48
    Track gain             : -6.09 dB
    Peak                   : 0.993866
    CRC32 hash (test run)  : 4877EFE8
    CRC32 hash             : 4877EFE8
    CRC32 hash (skip zero) : ACD253AB
    AccurateRip signature  : 62E25151
        ->Accurately ripped! (confidence 1)
          (matched with the different offset correction value;
           calculated using an additional offset of 664;
           the signature after correction is: 92AE2A81)
    Statistics
        Read error                           : 0
        Skipped (treated as error)           : 0
        Edge jitter error (maybe fixed)      : 0
        Atom jitter error (maybe fixed)      : 0
        Drift error (maybe fixed)            : 0
        Dropped bytes error (maybe fixed)    : 0
        Duplicated bytes error (maybe fixed) : 0
        Inconsistency in error sectors       : 0
Track 04
    Filename : /Users/User/VuzeData/The Rubinoos - Anthology [2000] FLAC/04 - Make It Easy.flac
    Pre-gap length : 00:01:47
    Track gain             : -5.85 dB
    Peak                   : 0.933624
    CRC32 hash (test run)  : 63590D02
    CRC32 hash             : 63590D02
    CRC32 hash (skip zero) : 41BFDFB4
    AccurateRip signature  : 87268AAA
        ->Accurately ripped! (confidence 1)
          (matched with the different offset correction value;
           calculated using an additional offset of 664;
           the signature after correction is: E2435362)
    Statistics
        Read error                           : 0
        Skipped (treated as error)           : 0
        Edge jitter error (maybe fixed)      : 0
        Atom jitter error (maybe fixed)      : 0
        Drift error (maybe fixed)            : 0
        Dropped bytes error (maybe fixed)    : 0
        Duplicated bytes error (maybe fixed) : 0
        Inconsistency in error sectors       : 0
Track 05
    Filename : /Users/User/VuzeData/The Rubinoos - Anthology [2000] FLAC/05 - I Never Thought It Would Happen.flac
    Pre-gap length : 00:01:48
    Track gain             : -5.75 dB
    Peak                   : 0.932953
    CRC32 hash (test run)  : 7E916ED3
    CRC32 hash             : 7E916ED3
    CRC32 hash (skip zero) : 6A64C4FC
    AccurateRip signature  : D19523F6
        ->Accurately ripped! (confidence 1)
          (matched with the different offset correction value;
           calculated using an additional offset of 664;
           the signature after correction is: 1EBF9306)
    Statistics
        Read error                           : 0
        Skipped (treated as error)           : 0
        Edge jitter error (maybe fixed)      : 0
        Atom jitter error (maybe fixed)      : 0
        Drift error (maybe fixed)            : 0
        Dropped bytes error (maybe fixed)    : 0
        Duplicated bytes error (maybe fixed) : 0
        Inconsistency in error sectors       : 0
Track 06
    Filename : /Users/User/VuzeData/The Rubinoos - Anthology [2000] FLAC/06 - I Think We're Alone Now.flac
    Pre-gap length : 00:01:47
    Track gain             : -5.64 dB
    Peak                   : 0.996552
    CRC32 hash (test run)  : A0CE98D0
    CRC32 hash             : A0CE98D0
    CRC32 hash (skip zero) : A9C66354
    AccurateRip signature  : CD0E8CC3
        ->Accurately ripped! (confidence 1)
          (matched with the different offset correction value;
           calculated using an additional offset of 664;
           the signature after correction is: DB259FC3)
    Statistics
        Read error                           : 0
        Skipped (treated as error)           : 0
        Edge jitter error (maybe fixed)      : 0
        Atom jitter error (maybe fixed)      : 0
        Drift error (maybe fixed)            : 0
        Dropped bytes error (maybe fixed)    : 0
        Duplicated bytes error (maybe fixed) : 0
        Inconsistency in error sectors       : 0
Track 07
    Filename : /Users/User/VuzeData/The Rubinoos - Anthology [2000] FLAC/07 - Leave My Heart Alone.flac
    Pre-gap length : 00:01:47
    Track gain             : -5.87 dB
    Peak                   : 0.994659
    CRC32 hash (test run)  : B3912922
    CRC32 hash             : B3912922
    CRC32 hash (skip zero) : 0A7F189E
    AccurateRip signature  : F0BEA3CA
        ->Accurately ripped! (confidence 1)
          (matched with the different offset correction value;
           calculated using an additional offset of 664;
           the signature after correction is: 1789C292)
    Statistics
        Read error                           : 0
        Skipped (treated as error)           : 0
        Edge jitter error (maybe fixed)      : 0
        Atom jitter error (maybe fixed)      : 0
        Drift error (maybe fixed)            : 0
        Dropped bytes error (maybe fixed)    : 0
        Duplicated bytes error (maybe fixed) : 0
        Inconsistency in error sectors       : 0
Track 08
    Filename : /Users/User/VuzeData/The Rubinoos - Anthology [2000] FLAC/08 - Hard To Get.flac
    Pre-gap length : 00:01:48
    Track gain             : -5.14 dB
    Peak                   : 0.838806
    CRC32 hash (test run)  : 0AF6D23A
    CRC32 hash             : 0AF6D23A
    CRC32 hash (skip zero) : 6A51C73D
    AccurateRip signature  : 89F2E38F
        ->Accurately ripped! (confidence 1)
          (matched with the different offset correction value;
           calculated using an additional offset of 664;
           the signature after correction is: DEFFE297)
    Statistics
        Read error                           : 0
        Skipped (treated as error)           : 0
        Edge jitter error (maybe fixed)      : 0
        Atom jitter error (maybe fixed)      : 0
        Drift error (maybe fixed)            : 0
        Dropped bytes error (maybe fixed)    : 0
        Duplicated bytes error (maybe fixed) : 0
        Inconsistency in error sectors       : 0
Track 09
    Filename : /Users/User/VuzeData/The Rubinoos - Anthology [2000] FLAC/09 - Peek-A-Boo.flac
    Pre-gap length : 00:01:47
    Track gain             : -6.90 dB
    Peak                   : 0.991699
    CRC32 hash (test run)  : 2A3335A4
    CRC32 hash             : 2A3335A4
    CRC32 hash (skip zero) : CA96CF34
    AccurateRip signature  : 449D9FD6
        ->Accurately ripped! (confidence 1)
          (matched with the different offset correction value;
           calculated using an additional offset of 664;
           the signature after correction is: 4692B75E)
    Statistics
        Read error                           : 0
        Skipped (treated as error)           : 0
        Edge jitter error (maybe fixed)      : 0
        Atom jitter error (maybe fixed)      : 0
        Drift error (maybe fixed)            : 0
        Dropped bytes error (maybe fixed)    : 0
        Duplicated bytes error (maybe fixed) : 0
        Inconsistency in error sectors       : 0
Track 10
    Filename : /Users/User/VuzeData/The Rubinoos - Anthology [2000] FLAC/10 - Rock 'n' Roll Is Dead.flac
    Pre-gap length : 00:01:47
    Track gain             : -7.58 dB
    Peak                   : 0.968201
    CRC32 hash (test run)  : CDCC5251
    CRC32 hash             : CDCC5251
    CRC32 hash (skip zero) : C0409C07
    AccurateRip signature  : 56C9B309
        ->Accurately ripped! (confidence 1)
          (matched with the different offset correction value;
           calculated using an additional offset of 664;
           the signature after correction is: 773D2209)
    Statistics
        Read error                           : 0
        Skipped (treated as error)           : 0
        Edge jitter error (maybe fixed)      : 0
        Atom jitter error (maybe fixed)      : 0
        Drift error (maybe fixed)            : 0
        Dropped bytes error (maybe fixed)    : 0
        Duplicated bytes error (maybe fixed) : 0
        Inconsistency in error sectors       : 0
Track 11
    Filename : /Users/User/VuzeData/The Rubinoos - Anthology [2000] FLAC/11 - Fall In Love.flac
    Pre-gap length : 00:01:48
    Track gain             : -6.98 dB
    Peak                   : 0.997925
    CRC32 hash (test run)  : E289369F
    CRC32 hash             : E289369F
    CRC32 hash (skip zero) : 19718E00
    AccurateRip signature  : D6E436D9
        ->Accurately ripped! (confidence 1)
          (matched with the different offset correction value;
           calculated using an additional offset of 664;
           the signature after correction is: 0BEEDEA9)
    Statistics
        Read error                           : 0
        Skipped (treated as error)           : 0
        Edge jitter error (maybe fixed)      : 0
        Atom jitter error (maybe fixed)      : 0
        Drift error (maybe fixed)            : 0
        Dropped bytes error (maybe fixed)    : 0
        Duplicated bytes error (maybe fixed) : 0
        Inconsistency in error sectors       : 0
Track 12
    Filename : /Users/User/VuzeData/The Rubinoos - Anthology [2000] FLAC/12 - I Wanna Be Your Boyfriend.flac
    Pre-gap length : 00:01:47
    Track gain             : -6.11 dB
    Peak                   : 0.988434
    CRC32 hash (test run)  : D8F5D18C
    CRC32 hash             : D8F5D18C
    CRC32 hash (skip zero) : FE5AAC01
    AccurateRip signature  : E06B6983
        ->Accurately ripped! (confidence 1)
          (matched with the different offset correction value;
           calculated using an additional offset of 664;
           the signature after correction is: BCA0473B)
    Statistics
        Read error                           : 0
        Skipped (treated as error)           : 0
        Edge jitter error (maybe fixed)      : 0
        Atom jitter error (maybe fixed)      : 0
        Drift error (maybe fixed)            : 0
        Dropped bytes error (maybe fixed)    : 0
        Duplicated bytes error (maybe fixed) : 0
        Inconsistency in error sectors       : 0
Track 13
    Filename : /Users/User/VuzeData/The Rubinoos - Anthology [2000] FLAC/13 - Lightning Love Affair.flac
    Pre-gap length : 00:01:48
    Track gain             : -5.84 dB
    Peak                   : 0.994659
    CRC32 hash (test run)  : 3ABE573E
    CRC32 hash             : 3ABE573E
    CRC32 hash (skip zero) : 671A9654
    AccurateRip signature  : F397C6A5
        ->Accurately ripped! (confidence 1)
          (matched with the different offset correction value;
           calculated using an additional offset of 664;
           the signature after correction is: 84D004FD)
    Statistics
        Read error                           : 0
        Skipped (treated as error)           : 0
        Edge jitter error (maybe fixed)      : 0
        Atom jitter error (maybe fixed)      : 0
        Drift error (maybe fixed)            : 0
        Dropped bytes error (maybe fixed)    : 0
        Duplicated bytes error (maybe fixed) : 0
        Inconsistency in error sectors       : 0
Track 14
    Filename : /Users/User/VuzeData/The Rubinoos - Anthology [2000] FLAC/14 - Drivin' Music.flac
    Pre-gap length : 00:01:47
    Track gain             : -6.93 dB
    Peak                   : 0.998627
    CRC32 hash (test run)  : 735E6211
    CRC32 hash             : 735E6211
    CRC32 hash (skip zero) : C68F9F51
    AccurateRip signature  : C3373C53
        ->Accurately ripped! (confidence 1)
          (matched with the different offset correction value;
           calculated using an additional offset of 664;
           the signature after correction is: B709811B)
    Statistics
        Read error                           : 0
        Skipped (treated as error)           : 0
        Edge jitter error (maybe fixed)      : 0
        Atom jitter error (maybe fixed)      : 0
        Drift error (maybe fixed)            : 0
        Dropped bytes error (maybe fixed)    : 0
        Duplicated bytes error (maybe fixed) : 0
        Inconsistency in error sectors       : 0
Track 15
    Filename : /Users/User/VuzeData/The Rubinoos - Anthology [2000] FLAC/15 - Jennifer.flac
    Pre-gap length : 00:01:47
    Track gain             : -6.85 dB
    Peak                   : 0.997711
    CRC32 hash (test run)  : F52019BC
    CRC32 hash             : F52019BC
    CRC32 hash (skip zero) : 684AB78D
    AccurateRip signature  : A4C87C63
        ->Accurately ripped! (confidence 1)
          (matched with the different offset correction value;
           calculated using an additional offset of 664;
           the signature after correction is: 53410FA3)
    Statistics
        Read error                           : 0
        Skipped (treated as error)           : 0
        Edge jitter error (maybe fixed)      : 0
        Atom jitter error (maybe fixed)      : 0
        Drift error (maybe fixed)            : 0
        Dropped bytes error (maybe fixed)    : 0
        Duplicated bytes error (maybe fixed) : 0
        Inconsistency in error sectors       : 0
Track 16
    Filename : /Users/User/VuzeData/The Rubinoos - Anthology [2000] FLAC/16 - 1,2,3, Forever.flac
    Pre-gap length : 00:01:47
    Track gain             : -8.97 dB
    Peak                   : 1.000000
    CRC32 hash (test run)  : EA1CDE23
    CRC32 hash             : EA1CDE23
    CRC32 hash (skip zero) : 37466804
    AccurateRip signature  : 8E75E218
        ->Accurately ripped! (confidence 1)
          (matched with the different offset correction value;
           calculated using an additional offset of 664;
           the signature after correction is: 9A05ECA0)
    Statistics
        Read error                           : 0
        Skipped (treated as error)           : 0
        Edge jitter error (maybe fixed)      : 0
        Atom jitter error (maybe fixed)      : 0
        Drift error (maybe fixed)            : 0
        Dropped bytes error (maybe fixed)    : 0
        Duplicated bytes error (maybe fixed) : 0
        Inconsistency in error sectors       : 0
No errors occurred
End of status report
Код:
TITLE "Anthology"
PERFORMER "The Rubinoos"
REM GENRE "Indie Rock"
REM DATE 2000
REM DISCNUMBER 1
REM TOTALDISCS 1
REM DISCID DF0B5B10
FILE "01 - Memories.wav" WAVE
  TRACK 01 AUDIO
    TITLE "Memories"
    INDEX 01 00:00:00
FILE "02 - Nothing A Little Love Won't Cure.wav" WAVE
  TRACK 02 AUDIO
    TITLE "Nothing A Little Love Won't Cure"
    INDEX 01 00:00:00
  TRACK 03 AUDIO
    TITLE "Wouldn't It Be Nice"
    INDEX 00 02:40:05
FILE "03 - Wouldn't It Be Nice.wav" WAVE
    INDEX 01 00:00:00
  TRACK 04 AUDIO
    TITLE "Make It Easy"
    INDEX 00 03:24:15
FILE "04 - Make It Easy.wav" WAVE
    INDEX 01 00:00:00
  TRACK 05 AUDIO
    TITLE "I Never Thought It Would Happen"
    INDEX 00 03:05:70
FILE "05 - I Never Thought It Would Happen.wav" WAVE
    INDEX 01 00:00:00
  TRACK 06 AUDIO
    TITLE "I Think We're Alone Now"
    INDEX 00 02:34:20
FILE "06 - I Think We're Alone Now.wav" WAVE
    INDEX 01 00:00:00
  TRACK 07 AUDIO
    TITLE "Leave My Heart Alone"
    INDEX 00 02:53:53
FILE "07 - Leave My Heart Alone.wav" WAVE
    INDEX 01 00:00:00
  TRACK 08 AUDIO
    TITLE "Hard To Get"
    INDEX 00 02:38:25
FILE "08 - Hard To Get.wav" WAVE
    INDEX 01 00:00:00
  TRACK 09 AUDIO
    TITLE "Peek-A-Boo"
    INDEX 00 03:02:50
FILE "09 - Peek-A-Boo.wav" WAVE
    INDEX 01 00:00:00
  TRACK 10 AUDIO
    TITLE "Rock 'n' Roll Is Dead"
    INDEX 00 02:11:08
FILE "10 - Rock 'n' Roll Is Dead.wav" WAVE
    INDEX 01 00:00:00
  TRACK 11 AUDIO
    TITLE "Fall In Love"
    INDEX 00 02:52:30
FILE "11 - Fall In Love.wav" WAVE
    INDEX 01 00:00:00
  TRACK 12 AUDIO
    TITLE "I Wanna Be Your Boyfriend"
    INDEX 00 02:47:05
FILE "12 - I Wanna Be Your Boyfriend.wav" WAVE
    INDEX 01 00:00:00
  TRACK 13 AUDIO
    TITLE "Lightning Love Affair"
    INDEX 00 03:17:25
FILE "13 - Lightning Love Affair.wav" WAVE
    INDEX 01 00:00:00
  TRACK 14 AUDIO
    TITLE "Drivin' Music"
    INDEX 00 02:42:70
FILE "14 - Drivin' Music.wav" WAVE
    INDEX 01 00:00:00
  TRACK 15 AUDIO
    TITLE "Jennifer"
    INDEX 00 03:13:13
FILE "15 - Jennifer.wav" WAVE
    INDEX 01 00:00:00
  TRACK 16 AUDIO
    TITLE "1,2,3, Forever"
    INDEX 00 02:27:38
FILE "16 - 1,2,3, Forever.wav" WAVE
    INDEX 01 00:00:00
Код:
AUDIOCHECKER v2.0 beta (build 457) - by Dester - opdester@freemail.hu
~~~~~~~~~~~~~~~~~~~~~~~~~~~~~~~~~~
-=== DO NOT EDIT THIS FILE! ===-
Path: ...\The Rubinoos - Anthology [2000] {Castle-Essential}
01 -=- 01 - Memories.flac -=- CDDA (100%)
02 -=- 02 - Nothing A Little Love Won't Cure.flac -=- CDDA (100%)
03 -=- 03 - Wouldn't It Be Nice.flac -=- CDDA (99%)
04 -=- 04 - Make It Easy.flac -=- CDDA (99%)
05 -=- 05 - I Never Thought It Would Happen.flac -=- CDDA (100%)
06 -=- 06 - I Think We're Alone Now.flac -=- CDDA (100%)
07 -=- 07 - Leave My Heart Alone.flac -=- CDDA (100%)
08 -=- 08 - Hard To Get.flac -=- CDDA (99%)
09 -=- 09 - Peek-A-Boo.flac -=- CDDA (99%)
10 -=- 10 - Rock 'n' Roll Is Dead.flac -=- CDDA (100%)
11 -=- 11 - Fall In Love.flac -=- CDDA (100%)
12 -=- 12 - I Wanna Be Your Boyfriend.flac -=- CDDA (100%)
13 -=- 13 - Lightning Love Affair.flac -=- CDDA (100%)
14 -=- 14 - Drivin' Music.flac -=- CDDA (100%)
15 -=- 15 - Jennifer.flac -=- MPEG (95%)
16 -=- 16 - 1,2,3, Forever.flac -=- CDDA (100%)
Summary 93,81% CDDA
27755684

Current lineup
Jon Rubin - vocals, guitar (1970-1985, 1999–present)
Tommy Dunbar - guitar, vocals (1970-1985, 1999–present)
Donn "Donno" Spindt - drums, vocals (1971-1985, 1999–present)
Al Chan - bass, vocals (1980-1985, 1999–present)
Touring musicians

Susie Davis - keyboards, vocals (2002–present)
David Rokeach - drums (2007–present)
Former members
Greg 'Curly' Keranen - bass, vocals (1970–1971, 1973–1975)
Alex Carlin - organ (1970–1971)
Ralph Granich - drums (1970–1971)
Danny Woods - saxophone (1970–1971)
Tom Carpender - bass, vocals (1971–1973)
Royse Ader - bass, vocals (1975–1980)
Michael Boyd - keyboards, vocals (1981–1982)
Правила, инструкции, FAQ!!!
Торрент  Добавлен [26 мар 2019, 20:02] Скачать торрент Магнет ссылка
Скачать торрент
[ Размер 13.66 КБ / Просмотров 12 ]

Статус
Проверен 
 
Размер  308.35 МБ
Приватный: Нет (DHT включён)
.torrent скачан  2
 


     Отправить личное сообщение
   
Страница 1 из 1
Показать сообщения за:  Поле сортировки  
Начать новую тему Ответить на тему


Сейчас этот форум просматривают: нет зарегистрированных пользователей и гости: 0


Вы не можете начинать темы
Вы не можете отвечать на сообщения
Вы не можете редактировать свои сообщения
Вы не можете удалять свои сообщения
Вы не можете добавлять вложения

Перейти:  
cron