Начать новую тему Ответить на тему
Статистика раздачи
Размер: 1.13 ГБ | Добавлен: 21 авг 2020, 20:23 | Скачали: 0
Сидеров: 1  [0 байт/сек]    Личеров: 0  [0 байт/сек]
Пред. тема | След. тема 

Автор
Сообщение

СообщениеДобавлено: 21 авг 2020, 20:23 

Ответить с цитатой 



The Chris White Experience



Жанр: Rock, Pop
Носитель: WEB
Год издания: 2020
Страна исполнителя (группы): England
Аудиокодек: FLAC (*.flac)
Тип рипа: tracks
Источник: Deezer
Наличие сканов в содержимом раздачи: нет
#777Tracklist:
01. Why Can't You Lie to Me (3:35)
02. Power over Me (3:14)
03. A Trick of Starlight (3:31)
04. I'm Coming Home (2:41)
05. Good for You Darlin' (3:59)
06. My Love Tonight (3:33)
07. When My Boat Comes In (3:44)
08. Something I Heard (3:28)
09. She Makes Me Feel (3:52)
10. Taking the Wings from Butterflies (4:05)
11. Like a Shotgun (3:33)
12. Ride on the Wind (3:08)
13. I Danced the Dance (3:42)
Код:
-----------------------
DON'T MODIFY THIS FILE
-----------------------
PERFORMER: auCDtect Task Manager, ver. 1.6.0 RC1 build 1.6.0.1
Copyright (c) 2008-2010 y-soft. All rights reserved
[url=http://y-soft.org]http://y-soft.org[/url]
ANALYZER: auCDtect: CD records authenticity detector, version 0.8.2
Copyright (c) 2004 Oleg Berngardt. All rights reserved.
Copyright (c) 2004 Alexander Djourik. All rights reserved.
FILE: 13 - I Danced the Dance.flac
  Size: 23040784 Hash: A4B035C708FC685E13C28FD75A999F57 Accuracy: -m0
  Conclusion: MPEG 95%
  Signature: 7D1B1ADC55A2A80763E53F4D50A8AC1399A31737
FILE: 12 - Ride on the Wind.flac
  Size: 21189266 Hash: 3F5FEE0B07BAF80B1F2B0A478F5DB71E Accuracy: -m0
  Conclusion: CDDA 100%
  Signature: D715943DBEA5049D29237873AD9B34FB61063262
FILE: 11 - Like a Shotgun.flac
  Size: 24100164 Hash: AAE054299C68276A3736BF14FE5B545C Accuracy: -m0
  Conclusion: CDDA 100%
  Signature: 424B27BF2D3CE9A1BC20943780FAFA9F070EE8A6
FILE: 10 - Taking the Wings from Butterflies.flac
  Size: 28092518 Hash: 44E7D28656C5E7616F8CBB2D5129965B Accuracy: -m0
  Conclusion: CDDA 100%
  Signature: 30907BC6C6D7BC5CD18B1EAC9BE22E56527C5896
FILE: 09 - She Makes Me Feel.flac
  Size: 23987361 Hash: 3AFC79F4BDBFD3B2ADD24655942C7604 Accuracy: -m0
  Conclusion: CDDA 100%
  Signature: 7791BC7FCAC1E9612CCB1C97308C604B8638873F
FILE: 08 - Something I Heard.flac
  Size: 24343009 Hash: C1D66912BB6FBF19286A392F9F47843F Accuracy: -m0
  Conclusion: MPEG 95%
  Signature: 402EEA9EAA5CF2D55AA4A94E02191B54DC1896B1
FILE: 07 - When My Boat Comes In.flac
  Size: 21171149 Hash: F86A96D9A936C43B377106299B275C10 Accuracy: -m0
  Conclusion: CDDA 100%
  Signature: E1F6BE87CC1A3BA2B697ABEDBFD19DF08D730E3B
FILE: 06 - My Love Tonight.flac
  Size: 24470528 Hash: 04BD5BF2AED7527099586A209F723E22 Accuracy: -m0
  Conclusion: CDDA 100%
  Signature: 2F4701C2CDCF3A0D6F85771F53BC223848B25387
FILE: 05 - Good for You Darlin'.flac
  Size: 27311534 Hash: CA0FEFADB6B5271789004990AF6205BC Accuracy: -m0
  Conclusion: CDDA 99%
  Signature: 77D7992EBE85177B32037FA767A28C4A08D5222E
FILE: 04 - I'm Coming Home.flac
  Size: 18870863 Hash: 995B1FE2E1895162E9D54248E927363B Accuracy: -m0
  Conclusion: CDDA 100%
  Signature: 81663BDB295EDDD7F2963D0AB1358787D5675069
FILE: 03 - A Trick of Starlight.flac
  Size: 23140001 Hash: D8B393D5B74C519B8ACFD5AAD49ACD3A Accuracy: -m0
  Conclusion: CDDA 100%
  Signature: 98F09CCF274218519795101481A629385D96599F
FILE: 02 - Power over Me.flac
  Size: 21676327 Hash: 416A64AF0068AA5722F9F65772AD7AAB Accuracy: -m0
  Conclusion: CDDA 100%
  Signature: 9730EC66852F7D25EF62C2A68E8497A4471AC05F
FILE: 01 - Why Can't You Lie to Me.flac
  Size: 23000629 Hash: 1FF548367542A12DFD83B489988A611E Accuracy: -m0
  Conclusion: CDDA 100%
  Signature: 1AD318F9B2BADDD6B54A0BF8963B401AE8F461A2

Код:
foobar2000 1.3.9 / Dynamic Range Meter 1.1.1
log date: 2020-08-18 23:15:53
--------------------------------------------------------------------------------
Analyzed: The Chris White Experience / Vol. 1
--------------------------------------------------------------------------------
DR         Peak         RMS     Duration Track
--------------------------------------------------------------------------------
DR13      -0.30 dB   -15.16 dB      3:35 01-Why Can't You Lie to Me
DR13      -0.40 dB   -15.60 dB      3:14 02-Power over Me
DR13      -1.18 dB   -17.34 dB      3:31 03-A Trick of Starlight
DR12      -0.38 dB   -14.06 dB      2:41 04-I'm Coming Home
DR12      -1.18 dB   -14.84 dB      3:59 05-Good for You Darlin'
DR12      -0.40 dB   -14.56 dB      3:33 06-My Love Tonight
DR13      -0.45 dB   -17.85 dB      3:44 07-When My Boat Comes In
DR12      -0.40 dB   -13.68 dB      3:28 08-Something I Heard
DR14      -0.40 dB   -16.36 dB      3:52 09-She Makes Me Feel
DR13      -0.40 dB   -16.13 dB      4:05 10-Taking the Wings from Butterflies
DR13      -0.39 dB   -15.07 dB      3:33 11-Like a Shotgun
DR12      -0.39 dB   -13.91 dB      3:08 12-Ride on the Wind
DR11      -0.38 dB   -14.67 dB      3:42 13-I Danced the Dance
--------------------------------------------------------------------------------
Number of tracks:  13
Official DR value: DR12
Samplerate:        44100 Hz
Channels:          2
Bits per sample:   16
Bitrate:           829 kbps
Codec:             FLAC
================================================================================
#777Tracklist:
01. Good Good Morning (3:23)
02. Heard Your Song (2:39)
03. Don’t Go Looking (3:39)
04. How I Miss You (3:48)
05. Teddlybears (2:30)
06. Hold My Hand (4:03)
07. Make the Lady Smile (4:04)
08. Normal Heart (3:04)
09. Eyes (3:00)
10. Killing Rose (4:07)
11. Is There Anyone out There? (5:27)
12. Got to Be Now (3:34)
13. Waiting for the Night to End (3:40)
Код:
-----------------------
DON'T MODIFY THIS FILE
-----------------------
PERFORMER: auCDtect Task Manager, ver. 1.6.0 RC1 build 1.6.0.1
Copyright (c) 2008-2010 y-soft. All rights reserved
[url=http://y-soft.org]http://y-soft.org[/url]
ANALYZER: auCDtect: CD records authenticity detector, version 0.8.2
Copyright (c) 2004 Oleg Berngardt. All rights reserved.
Copyright (c) 2004 Alexander Djourik. All rights reserved.
FILE: 13 - Waiting for the Night to End.flac
  Size: 23423748 Hash: ACDFFE49A2A02B9C8BF93911DFB63581 Accuracy: -m0
  Conclusion: CDDA 100%
  Signature: C67C4CEAF83CBDB5C4E475339AD2294190060CE3
FILE: 12 - Got to Be Now.flac
  Size: 23809589 Hash: 9C8CA6BBA7ADFD8EE8B39CF53CF434BB Accuracy: -m0
  Conclusion: CDDA 100%
  Signature: FBA8FBE1C9CE534778471CB271CBE1F971B30C25
FILE: 11 - Is There Anyone out There_.flac
  Size: 35121149 Hash: 7DD5CB238080E16C34029826AF2D526C Accuracy: -m0
  Conclusion: CDDA 100%
  Signature: D09605F5B415E36201BFBD0D02981AC764749F07
FILE: 10 - Killing Rose.flac
  Size: 29916341 Hash: AE4FFB621F7BE6419F8D40339AC8A0D3 Accuracy: -m0
  Conclusion: CDDA 100%
  Signature: BCB3C27B559D3306021B4BACACF505BC4B710B5D
FILE: 09 - Eyes.flac
  Size: 17974923 Hash: 97C1B505F38009B3D8F7C85AC60DD067 Accuracy: -m0
  Conclusion: CDDA 100%
  Signature: 08960029911C94F3A272A233AF48ABBAEA30DF93
FILE: 08 - Normal Heart.flac
  Size: 19025124 Hash: A6C6BCDB42E4A0F3EF584B2A443388F0 Accuracy: -m0
  Conclusion: CDDA 100%
  Signature: E23D8DA348F9D97E3E2C315637F736B3621049BA
FILE: 07 - Make the Lady Smile.flac
  Size: 27860205 Hash: E534957D33362CF2BE5B6FDBB8D3A64F Accuracy: -m0
  Conclusion: CDDA 99%
  Signature: E65B4F0F61EB2239F1D912920178415A73145553
FILE: 06 - Hold My Hand.flac
  Size: 21455465 Hash: 31537D7DD802E476271EE6353B28EAA2 Accuracy: -m0
  Conclusion: CDDA 99%
  Signature: 5E4902E3FEAC3B1380317DFC1ABB9E9C118F8BB7
FILE: 05 - Teddlybears.flac
  Size: 17211995 Hash: 90C6200A6109B0F42D5555D51425686E Accuracy: -m0
  Conclusion: CDDA 100%
  Signature: DF4D4E61F80E729E1F62E731817F481AC45D7DE5
FILE: 04 - How I Miss You.flac
  Size: 20854870 Hash: 5F0DE1C682E3EF8D24CADC47FD667626 Accuracy: -m0
  Conclusion: CDDA 100%
  Signature: ACFD995225732D97FEDCA148D1E54D670C3A7303
FILE: 03 - Don’t Go Looking.flac
  Size: 24156224 Hash: 523429102224BDAFD05CAEF659DC0A8A Accuracy: -m0
  Conclusion: MPEG 79%
  Signature: C33B8234AF05975A686A358E7B4C6A61B42F93E6
FILE: 02 - Heard Your Song.flac
  Size: 17702768 Hash: DD07A64DF00A631614DC780447DA23A4 Accuracy: -m0
  Conclusion: CDDA 100%
  Signature: 631970DDF4C5B2FC49E078D1F2CFF1DA8699A066
FILE: 01 - Good Good Morning.flac
  Size: 22328873 Hash: 1A3922CDA3EE3EA0335093977A35D0E8 Accuracy: -m0
  Conclusion: CDDA 100%
  Signature: 59D5EE0A374BEDD46B978229AC4EA82BA86405C5
Код:
foobar2000 1.3.9 / Dynamic Range Meter 1.1.1
log date: 2020-08-18 23:16:49
--------------------------------------------------------------------------------
Analyzed: The Chris White Experience / Vol. 2
--------------------------------------------------------------------------------
DR         Peak         RMS     Duration Track
--------------------------------------------------------------------------------
DR12      -0.38 dB   -15.03 dB      3:23 01-Good Good Morning
DR12      -0.37 dB   -14.31 dB      2:39 02-Heard Your Song
DR11      -3.21 dB   -15.28 dB      3:39 03-Don’t Go Looking
DR11      -2.65 dB   -16.25 dB      3:48 04-How I Miss You
DR12      -0.38 dB   -13.78 dB      2:30 05-Teddlybears
DR11      -2.04 dB   -18.24 dB      4:03 06-Hold My Hand
DR12      -0.65 dB   -14.26 dB      4:04 07-Make the Lady Smile
DR13      -1.15 dB   -15.52 dB      3:04 08-Normal Heart
DR11      -0.42 dB   -15.30 dB      3:00 09-Eyes
DR12      -0.40 dB   -13.99 dB      4:07 10-Killing Rose
DR14      -0.40 dB   -17.02 dB      5:27 11-Is There Anyone out There?
DR13      -0.38 dB   -15.61 dB      3:34 12-Got to Be Now
DR14      -0.39 dB   -16.45 dB      3:40 13-Waiting for the Night to End
--------------------------------------------------------------------------------
Number of tracks:  13
Official DR value: DR12
Samplerate:        44100 Hz
Channels:          2
Bits per sample:   16
Bitrate:           850 kbps
Codec:             FLAC
================================================================================
#777Tracklist:
01. Celebration (3:33)
02. Out Through the Stars (3:24)
03. Can't Seem to Fall in Love (4:43)
04. Your Heart Is Mine (3:26)
05. To Live a Dream (4:09)
06. Loving You (2:38)
07. Up Against the Wall Again (3:02)
08. Man Go Find a Woman (2:57)
09. Hold on to Me (4:51)
10. Unhappy Girl (2:54)
11. Today More Than Ever (5:25)
12. Would You (3:18)
13. Let's Have a Party (4:42)
Код:
-----------------------
DON'T MODIFY THIS FILE
-----------------------
PERFORMER: auCDtect Task Manager, ver. 1.6.0 RC1 build 1.6.0.1
Copyright (c) 2008-2010 y-soft. All rights reserved
[url=http://y-soft.org]http://y-soft.org[/url]
ANALYZER: auCDtect: CD records authenticity detector, version 0.8.2
Copyright (c) 2004 Oleg Berngardt. All rights reserved.
Copyright (c) 2004 Alexander Djourik. All rights reserved.
FILE: 13 - Let's Have a Party.flac
  Size: 31288933 Hash: A498EC2D9450FC7509A4CC050733F5EE Accuracy: -m0
  Conclusion: CDDA 100%
  Signature: 15A288D47B429DF0B9D08993773E259AFA34AE90
FILE: 12 - Would You.flac
  Size: 23348554 Hash: 206D7BD3132F0C667BD37B78841DB956 Accuracy: -m0
  Conclusion: CDDA 100%
  Signature: 8CE31043FAAAE8F9157171995AA49088C8DD944F
FILE: 11 - Today More Than Ever.flac
  Size: 36941582 Hash: 87392F5A4D35B2AA94CD75741CB58567 Accuracy: -m0
  Conclusion: CDDA 100%
  Signature: 5C2098335D7556EEEB01082C8A44DDFED8324906
FILE: 10 - Unhappy Girl.flac
  Size: 19841830 Hash: 6063190A1E3F077EA3FA598C6DE51629 Accuracy: -m0
  Conclusion: CDDA 100%
  Signature: E5AA961E930326694C79A1FBAAD6D66B518195AC
FILE: 09 - Hold on to Me.flac
  Size: 33163566 Hash: 5169C20BC2D37508AF1594FBEDC85990 Accuracy: -m0
  Conclusion: CDDA 100%
  Signature: E1633D811DB3553C1A331E33F7E466D224DDBA8B
FILE: 08 - Man Go Find a Woman.flac
  Size: 18747783 Hash: 01796AF6C6EF8D5F5009BF258EE2AE7D Accuracy: -m0
  Conclusion: CDDA 100%
  Signature: 78EEF33A5E9BC0CAD362D89817B1AC8DAF45BB81
FILE: 07 - Up Against the Wall Again.flac
  Size: 22288116 Hash: 83191E9BF3B688171BF8021CBC2435F1 Accuracy: -m0
  Conclusion: CDDA 100%
  Signature: ED56F28380208C35A4681C29D2CFE296E3843A1F
FILE: 06 - Loving You.flac
  Size: 18340209 Hash: BBB7305F0B5318FBED2F53CE53FE590D Accuracy: -m0
  Conclusion: CDDA 100%
  Signature: E6F15A340DC30AD11A242570DE2E14F4F52215F0
FILE: 05 - To Live a Dream.flac
  Size: 26865028 Hash: FF56F0DAD603C74D24E3AA95EB148D67 Accuracy: -m0
  Conclusion: CDDA 100%
  Signature: BFFCB7AEBED3BF08785A195BF001DC428F874EE7
FILE: 04 - Your Heart Is Mine.flac
  Size: 23726280 Hash: 8579A26B593215489D68EACBAE7CFFAE Accuracy: -m0
  Conclusion: CDDA 100%
  Signature: FC1A0765B8A4D007B0EDAD8D041F1C095D0D135D
FILE: 03 - Can't Seem to Fall in Love.flac
  Size: 31380313 Hash: D8813C3A94D9C1B55233F454A07CFA5B Accuracy: -m0
  Conclusion: CDDA 100%
  Signature: F15EA885A8EDBF4FED468F9EC03A5F5251A10999
FILE: 02 - Out Through the Stars.flac
  Size: 24444719 Hash: 70FA6614AFED49340DEAE87BC6AF6CEC Accuracy: -m0
  Conclusion: CDDA 100%
  Signature: BB4611E8565589192F8424AEAA7981D7AF1107E2
FILE: 01 - Celebration.flac
  Size: 25695378 Hash: 2CF6127FFE401E5A209FBACD96911647 Accuracy: -m0
  Conclusion: CDDA 100%
  Signature: 245DBE1E1CE7E99AEED697640EF0953DC39D4298
Код:
foobar2000 1.3.9 / Dynamic Range Meter 1.1.1
log date: 2020-08-18 23:21:18
--------------------------------------------------------------------------------
Analyzed: The Chris White Experience / Vol. 3
--------------------------------------------------------------------------------
DR         Peak         RMS     Duration Track
--------------------------------------------------------------------------------
DR12      -0.41 dB   -13.68 dB      3:33 01-Celebration
DR10      -0.39 dB   -11.31 dB      3:24 02-Out Through the Stars
DR12      -0.42 dB   -13.89 dB      4:43 03-Can't Seem to Fall in Love
DR13      -0.38 dB   -14.65 dB      3:26 04-Your Heart Is Mine
DR13      -0.40 dB   -15.51 dB      4:09 05-To Live a Dream
DR13      -0.39 dB   -14.53 dB      2:38 06-Loving You
DR11      -0.38 dB   -13.14 dB      3:02 07-Up Against the Wall Again
DR11      -0.41 dB   -14.50 dB      2:57 08-Man Go Find a Woman
DR13      -0.39 dB   -16.07 dB      4:51 09-Hold on to Me
DR10      -0.39 dB   -12.57 dB      2:54 10-Unhappy Girl
DR11      -2.17 dB   -15.38 dB      5:25 11-Today More Than Ever
DR12      -0.34 dB   -13.81 dB      3:18 12-Would You
DR14      -0.39 dB   -15.59 dB      4:42 13-Let's Have a Party
--------------------------------------------------------------------------------
Number of tracks:  13
Official DR value: DR12
Samplerate:        44100 Hz
Channels:          2
Bits per sample:   16
Bitrate:           886 kbps
Codec:             FLAC
================================================================================
#777Tracklist:
01. Do You Wanna Make Love (2:57)
02. Woman in Your Arms (3:00)
03. Mr Galileo (2:42)
04. Oh Doctor (3:12)
05. Dancin' Heatwave (3:24)
06. Latino (4:48)
07. Hummingbird (2:55)
08. Alexis, You're a Circus (3:36)
09. I've Seen and Done It All (2:36)
10. Ball and Chain (3:07)
11. Clockwork (4:14)
12. New World (4:41)
Код:
-----------------------
DON'T MODIFY THIS FILE
-----------------------
PERFORMER: auCDtect Task Manager, ver. 1.6.0 RC1 build 1.6.0.1
Copyright (c) 2008-2010 y-soft. All rights reserved
[url=http://y-soft.org]http://y-soft.org[/url]
ANALYZER: auCDtect: CD records authenticity detector, version 0.8.2
Copyright (c) 2004 Oleg Berngardt. All rights reserved.
Copyright (c) 2004 Alexander Djourik. All rights reserved.
FILE: 12 - New World.flac
  Size: 31877514 Hash: 4CE2036B9935E5B861FAB472072EC082 Accuracy: -m0
  Conclusion: CDDA 100%
  Signature: E62B3F498C08FE6EDD161B09B13938929F243BAE
FILE: 11 - Clockwork.flac
  Size: 23903461 Hash: 8986B22FF0D10BC43444701AB5FCD9C9 Accuracy: -m0
  Conclusion: MPEG 95%
  Signature: B6EFCF88A55C8B9358D3795C94CF1C74E1926D94
FILE: 10 - Ball and Chain.flac
  Size: 20001661 Hash: 6535D96F370F4ADE362C2A72DDEBA8FE Accuracy: -m0
  Conclusion: CDDA 99%
  Signature: FB4341ED83E7E9FDCF6EC63544C678F841429188
FILE: 09 - I've Seen and Done It All.flac
  Size: 17481118 Hash: 61F0361E4E928DD4519F2C4D360138DB Accuracy: -m0
  Conclusion: CDDA 100%
  Signature: 154C634FD7A4C98E833F9DB10F8C532FF2F0C8E8
FILE: 08 - Alexis, You're a Circus.flac
  Size: 24557427 Hash: 84EEE274FD0020A052DDC115AB42B87A Accuracy: -m0
  Conclusion: CDDA 100%
  Signature: 0AB1A3C994E22FFAC54171361163D3EE62F6A531
FILE: 07 - Hummingbird.flac
  Size: 19198142 Hash: CE1731A34A3FF4D4A7A3CEF117133F9D Accuracy: -m0
  Conclusion: CDDA 100%
  Signature: 0079595F35C008071884B4F0F58670583796B324
FILE: 06 - Latino.flac
  Size: 29410674 Hash: 8C95A0C567AE283887235A613E29C47C Accuracy: -m0
  Conclusion: CDDA 100%
  Signature: CA60E981C88F0B03FEA6FD67DA4A32DB7EB7B506
FILE: 05 - Dancin' Heatwave.flac
  Size: 24056241 Hash: 4B4FEE62C00A4B3E8AC6680ED8792B73 Accuracy: -m0
  Conclusion: CDDA 100%
  Signature: 86FA04780078BA8D10E631ED85633FC203A656B7
FILE: 04 - Oh Doctor.flac
  Size: 22129452 Hash: 652708A20174C5227EBF51974DAFE7D8 Accuracy: -m0
  Conclusion: CDDA 100%
  Signature: 355F6C1A01EE2D0687CA8FF6667F9C52AE678D34
FILE: 03 - Mr Galileo.flac
  Size: 17918594 Hash: 674A635BC88DCB01CA009EFF0F03120E Accuracy: -m0
  Conclusion: CDDA 100%
  Signature: A38F0A38BAF7FF0EA094603DDB4086E1A2CBD866
FILE: 02 - Woman in Your Arms.flac
  Size: 18906960 Hash: 5C5C111D15B7FB9787CEDEAA00964401 Accuracy: -m0
  Conclusion: CDDA 100%
  Signature: A6273043F7B9DDAD860D50AFC2D4705538128CED
FILE: 01 - Do You Wanna Make Love.flac
  Size: 20241320 Hash: 27B1A481EB222EEABC3A1A02559B0983 Accuracy: -m0
  Conclusion: CDDA 100%
  Signature: 33143D93004C7C603DBD274876FCFE648CCFCC60
Код:
foobar2000 1.3.9 / Dynamic Range Meter 1.1.1
log date: 2020-08-18 23:21:38
--------------------------------------------------------------------------------
Analyzed: The Chris White Experience / Vol. 4: Production Sessions
--------------------------------------------------------------------------------
DR         Peak         RMS     Duration Track
--------------------------------------------------------------------------------
DR12      -0.39 dB   -14.67 dB      2:57 01-Do You Wanna Make Love
DR12      -0.39 dB   -15.60 dB      3:00 02-Woman in Your Arms
DR10      -2.50 dB   -14.70 dB      2:42 03-Mr Galileo
DR11      -0.42 dB   -13.94 dB      3:12 04-Oh Doctor
DR11      -0.41 dB   -13.20 dB      3:24 05-Dancin' Heatwave
DR12      -0.40 dB   -14.93 dB      4:48 06-Latino
DR12      -0.45 dB   -14.28 dB      2:55 07-Hummingbird
DR12      -0.40 dB   -14.15 dB      3:36 08-Alexis, You're a Circus
DR12      -0.39 dB   -14.77 dB      2:36 09-I've Seen and Done It All
DR13      -0.39 dB   -14.72 dB      3:07 10-Ball and Chain
DR14      -0.40 dB   -16.35 dB      4:14 11-Clockwork
DR13      -0.38 dB   -15.52 dB      4:41 12-New World
--------------------------------------------------------------------------------
Number of tracks:  12
Official DR value: DR12
Samplerate:        44100 Hz
Channels:          2
Bits per sample:   16
Bitrate:           906 kbps
Codec:             FLAC
================================================================================

Релиз от группы:

Правила, инструкции, FAQ!!!
Торрент  Добавлен [21 авг 2020, 20:23] Скачать торрент Магнет ссылка
Скачать торрент
[ Размер 17.52 КБ / Просмотров 4 ]

Статус
Проверен 
 
Размер  1.13 ГБ
Приватный: Нет (DHT включён)
.torrent скачан  0
 


     Отправить личное сообщение
   
Страница 1 из 1
Показать сообщения за:  Поле сортировки  
Начать новую тему Ответить на тему


Сейчас этот форум просматривают: нет зарегистрированных пользователей и гости: 0


Вы не можете начинать темы
Вы не можете отвечать на сообщения
Вы не можете редактировать свои сообщения
Вы не можете удалять свои сообщения
Вы не можете добавлять вложения

Перейти:  
cron