Начать новую тему Ответить на тему
Статистика раздачи
Размер: 394.84 МБ | Добавлен: 26 мар 2019, 19:53 | Скачали: 0
Сидеров: 2  [0 байт/сек]    Личеров: 0  [0 байт/сек]
Пред. тема | След. тема 

Автор
Сообщение

СообщениеДобавлено: 26 мар 2019, 19:53 

Ответить с цитатой 

Sunrise Avenue - PopGasm
Жанр: Rock/Pop
Год выпуска диска: 2009
Производитель диска: Germany
Аудио кодек: APE
Тип рипа: image+.cue
Битрейт аудио: lossless
Продолжительность: 0:53:28
Трэклист:
1. Dream Like A Child 4:21
2. The Whole Story 3:33
3. Rising Sun 3:54
4. Welcome To My Life 3:29
5. Not Again 3:52
6. Bad 3:28
7. Monk Bay 3:49
8. Bye Bye (One Night Kind) 3:19
9. Kiss 'N' Run 3:14
10. 6 - 0 3:15
11. Birds And Bees 3:07
12. Sail Away With Me 4:07
13. My Girl Is Mine 3:15
14. Something Sweet 6:42
Exact Audio Copy V0.99 prebeta 4 from 23. January 2008
Отчёт EAC об извлечении, выполненном 27. мая 2009, 11:53
Sunrise Avenue / Popgasm
Дисковод: PIONEER DVD-RW DVR-112D Adapter: 1 ID: 0
Режим чтения : Достоверность
Использование точного потока : Да
Отключение кэша аудио : Да
Использование указателей C2 : Нет
Коррекция смещения при чтении : 48
Способность читать области Lead-in и Lead-out : Нет
Заполнение пропущенных сэмплов тишиной : Да
Удаление блоков с тишиной в начале и конце : Нет
При вычислениях CRC использовались нулевые сэмплы : Да
Интерфейс : Установленный внешний ASPI-интерфейс
Выходной формат : Внутренние WAV-операции
Формат сэмплов : 44.100 Гц; 16 бит; стерео
TOC извлечённого CD
Трек | Старт | Длительность | Начальный сектор | Конечный сектор
---------------------------------------------------------------------
1 | 0:00.00 | 4:21.20 | 0 | 19594
2 | 4:21.20 | 3:33.58 | 19595 | 35627
3 | 7:55.03 | 3:54.05 | 35628 | 53182
4 | 11:49.08 | 3:29.28 | 53183 | 68885
5 | 15:18.36 | 3:52.19 | 68886 | 86304
6 | 19:10.55 | 3:28.14 | 86305 | 101918
7 | 22:38.69 | 3:49.01 | 101919 | 119094
8 | 26:27.70 | 3:19.09 | 119095 | 134028
9 | 29:47.04 | 3:14.41 | 134029 | 148619
10 | 33:01.45 | 3:15.23 | 148620 | 163267
11 | 36:16.68 | 3:07.65 | 163268 | 177357
12 | 39:24.58 | 4:07.03 | 177358 | 195885
13 | 43:31.61 | 3:15.62 | 195886 | 210572
14 | 46:47.48 | 6:42.23 | 210573 | 240745
Характеристики диапазона извлечения и сообщения об ошибках
Выбранный диапазон
Имя файла C:\Documents and Settings\Администратор\Рабочий стол\rutracker.org\раздачи\аудио\Sunrise Avenue\Sunrise Avenue - Popgasm.wav
Пиковый уровень 99.8 %
Качество диапазона 99.7 %
CRC копии 27E98C79
Копирование... OK
Ошибок не произошло
Конец отчёта
Правила, инструкции, FAQ!!!
Торрент  Добавлен [26 мар 2019, 19:53] Скачать торрент Магнет ссылка
Скачать торрент
[ Размер 16.47 КБ / Просмотров 10 ]

Статус
Проверен 
 
Размер  394.84 МБ
Приватный: Нет (DHT включён)
.torrent скачан  0
 


     Отправить личное сообщение
   
Страница 1 из 1
Показать сообщения за:  Поле сортировки  
Начать новую тему Ответить на тему


Сейчас этот форум просматривают: нет зарегистрированных пользователей и гости: 0


Вы не можете начинать темы
Вы не можете отвечать на сообщения
Вы не можете редактировать свои сообщения
Вы не можете удалять свои сообщения
Вы не можете добавлять вложения

Перейти:  
cron