Начать новую тему Ответить на тему
Статистика раздачи
Размер: 131.67 МБ | Добавлен: 26 мар 2019, 19:27 | Скачали: 0
Сидеров: 0  [0 байт/сек]    Личеров: 0  [0 байт/сек]
Пред. тема | След. тема 

Автор
Сообщение

СообщениеДобавлено: 26 мар 2019, 19:27 

Ответить с цитатой 

Sunrise Avenue - Farytale Gone Bad (CD Single)
Жанр: Rock/Pop
Год выпуска диска: 2006
Производитель диска: Germany
Аудио кодек: APE
Тип рипа: image+.cue
Битрейт аудио: lossless
Продолжительность: 00:19:47
Трэклист:
01. Fairytale Gone Bad (Radio Edit)
02. Fairytale Gone Bad (Album version)
03. Fairytale Gone Bad (Acoustic Version)
04. Fairytale Gone Bad (Instrumental Version)
05. Into the Blue
Доп. информация: Немецкий максик "Fairytale Gone Bad". Всевозможные версии этой клевой композиции + Into the Blue
Копия фирменного диска
Помним про спасибо
Код:
Exact Audio Copy V0.99 prebeta 4 from 23. January 2008
Отчёт EAC об извлечении, выполненном 7. февраля 2009, 16:26
Sunrise Avenue / Fairytale Gone Bad
Дисковод: PIONEER DVD-RW  DVR-212   Adapter: 1  ID: 1
Режим чтения                 : Достоверность
Использование точного потока : Да
Отключение кэша аудио        : Да
Использование указателей C2  : Нет
Коррекция смещения при чтении                     : 48
Способность читать области Lead-in и Lead-out     : Нет
Заполнение пропущенных сэмплов тишиной            : Да
Удаление блоков с тишиной в начале и конце        : Нет
При вычислениях CRC использовались нулевые сэмплы : Да
Интерфейс                                         : Встроенный Win32-интерфейс для Win NT/2000
Выходной формат : Внутренние WAV-операции
Формат сэмплов  : 44.100 Гц; 16 бит; стерео
TOC извлечённого CD
     Трек |   Старт  | Длительность | Начальный сектор | Конечный сектор
    ---------------------------------------------------------------------
       1  |  0:00.00 |    3:33.14   |           0      |      15988
       2  |  3:33.14 |    3:26.44   |       15989      |      31482
       3  |  6:59.58 |    3:45.25   |       31483      |      48382
       4  | 10:45.08 |    3:33.65   |       48383      |      64422
       5  | 14:18.73 |    5:28.43   |       64423      |      89065
Характеристики диапазона извлечения и сообщения об ошибках
Выбранный диапазон
     Имя файла D:\Torrents - раздачи\EAC rips\Sunrise Ave - Fairytale Gone Bad (CDM)\Sunrise Avenue - Fairytale Gone Bad.wav
     Пиковый уровень 99.8 %
     Качество диапазона 100.0 %
     CRC копии 4F35B9E0
     Копирование... OK
Ошибок не произошло
AccurateRip: сводка
Трек  1  точное извлечение (доверие 2)  [7AAC072B]
Трек  2  нет в базе данных
Трек  3  нет в базе данных
Трек  4  нет в базе данных
Трек  5  нет в базе данных
 1 трек(и) скопированы точно
 4 трек(и) не содержатся в базе AccurateRip
Некоторые треки не прошли проверку на точность
Конец отчёта
Правила, инструкции, FAQ!!!
Торрент  Добавлен [26 мар 2019, 19:27] Скачать торрент Магнет ссылка
Скачать торрент
[ Размер 11.1 КБ / Просмотров 1 ]

Статус
Проверен 
 
Размер  131.67 МБ
Приватный: Нет (DHT включён)
.torrent скачан  0
 


     Отправить личное сообщение
   
Страница 1 из 1
Показать сообщения за:  Поле сортировки  
Начать новую тему Ответить на тему


Сейчас этот форум просматривают: нет зарегистрированных пользователей и гости: 0


Вы не можете начинать темы
Вы не можете отвечать на сообщения
Вы не можете редактировать свои сообщения
Вы не можете удалять свои сообщения
Вы не можете добавлять вложения

Перейти:  
cron