Начать новую тему Ответить на тему
Статистика раздачи
Размер: 411.65 МБ | Добавлен: 26 мар 2019, 20:04 | Скачали: 0
Сидеров: 0  [0 байт/сек]    Личеров: 0  [0 байт/сек]
Пред. тема | След. тема 

Автор
Сообщение

СообщениеДобавлено: 26 мар 2019, 20:04 

Ответить с цитатой 

Cali / La vie est une truite arc-en-ciel qui nage dans mon cœur
Жанр: Rock / Pop - rock / Variété française
Носитель: CD
Страна-производитель диска: France
Год издания: 2010
Издатель (лейбл): Virgin Music / EMI
Страна: France
Аудиокодек: FLAC (*.flac)
Тип рипа: image + .Cue
Битрейт аудио: lossless
Продолжительность: 61:57
Источник (релизер): WEB
Наличие сканов в содержимом раздачи: нет
Треклист:
01. Je sais ta vie
02. L'amour fou
03. Je te veux maintenant
04. Cantona
05. Murano
06. Madame Butterfly
07. Nous serons tous les deux
08. Ma douleur
09. Lettre au Ministre du saccage des familles et des jeunes existences dévastées
10. Je vais arrêter de boire
11. Mille ans d'ennui
12. Je regarde mes dix-sept ans
13. Je n'attends que la revanche
Код:
~~~~~~~~~~~~~~~~~~~~~~~~~~~~~~~~~~
AUDIOCHECKER v2.0 beta (build 457) - by Dester - opdester@freemail.hu
~~~~~~~~~~~~~~~~~~~~~~~~~~~~~~~~~~
-=== DO NOT EDIT THIS FILE! ===-
Path: ...\AC
1 -=- Cali - La vie est une truite arc-en-ciel qui nage dans mon coeur.flac -=- CDDA (100%)
56263892
Код:
Exact Audio Copy V1.0 beta 2 from 29. April 2011
Отчёт EAC об извлечении, выполненном 13. марта 2014, 4:14
Cali / La vie est une truite arc-en-ciel qui nage dans mon coeur
Дисковод: TSSTcorpDVD+-RW TS-L633J   Adapter: 0  ID: 0
Режим чтения                 : Достоверность
Использование точного потока : Да
Отключение кэша аудио        : Да
Использование указателей C2  : Нет
Коррекция смещения при чтении                     : 6
Способность читать области Lead-in и Lead-out     : Нет
Заполнение пропущенных сэмплов тишиной            : Да
Удаление блоков с тишиной в начале и конце        : Нет
При вычислениях CRC использовались нулевые сэмплы : Нет
Интерфейс                                         : Встроенный Win32-интерфейс для Win NT/2000
Выходной формат          : Пользовательский кодировщик
Выбранный битрейт        : 32 kBit/s
Качество                 : Высокий
Добавление ID3-тега      : Нет
Утилита сжатия           : C:\Program Files (x86)\FLAC\flac.exe
Дополнительные параметры : -V -8 %source%
TOC извлечённого CD
     Трек |   Старт  | Длительность | Начальный сектор | Конечный сектор
    ---------------------------------------------------------------------
       1  |  0:00.00 |    4:57.22   |           0      |      22296
       2  |  4:57.22 |    4:43.13   |       22297      |      43534
       3  |  9:40.35 |    5:40.24   |       43535      |      69058
       4  | 15:20.59 |    4:14.74   |       69059      |      88182
       5  | 19:35.58 |    3:29.61   |       88183      |     103918
       6  | 23:05.44 |    5:06.65   |      103919      |     126933
       7  | 28:12.34 |    3:50.20   |      126934      |     144203
       8  | 32:02.54 |    5:07.16   |      144204      |     167244
       9  | 37:09.70 |    5:13.02   |      167245      |     190721
      10  | 42:22.72 |    4:00.52   |      190722      |     208773
      11  | 46:23.49 |    4:05.17   |      208774      |     227165
      12  | 50:28.66 |    3:47.15   |      227166      |     244205
      13  | 54:16.06 |    7:19.24   |      244206      |     277154
Характеристики диапазона извлечения и сообщения об ошибках
Выбранный диапазон
     Имя файла D:\'2010 CALI - La vie est une truite arc-en-ciel qui nage dans mon cœur {un auteur-compositeur-interprète français}\Cali - La vie est une truite arc-en-ciel qui nage dans mon coeur.wav
     Пиковый уровень 100.0 %
     Скорость извлечения 2.1 X
     Качество диапазона 100.0 %
     CRC теста ABB10AB6
     CRC копии ABB10AB6
     Копирование... OK
Ошибок не произошло
AccurateRip: сводка
Трек  1  отсутствует в базе данных
Трек  2  отсутствует в базе данных
Трек  3  отсутствует в базе данных
Трек  4  отсутствует в базе данных
Трек  5  отсутствует в базе данных
Трек  6  отсутствует в базе данных
Трек  7  отсутствует в базе данных
Трек  8  отсутствует в базе данных
Трек  9  отсутствует в базе данных
Трек 10  отсутствует в базе данных
Трек 11  отсутствует в базе данных
Трек 12  отсутствует в базе данных
Трек 13  отсутствует в базе данных
Ни одного трека нет в базе AccurateRip
Конец отчёта
==== Контрольная сумма отчёта 1E7056F3E5586CA4FC5A8D43D9F46E85BEDBE002B88B73A873BBF10EBDAB3FDB ==
Код:
REM GENRE Pop-rock
REM DATE 2010
REM DISCID BE0E6F0D
REM COMMENT "ExactAudioCopy v1.0b2"
PERFORMER "Cali"
TITLE "La vie est une truite arc-en-ciel qui nage dans mon coeur"
FILE "Cali - La vie est une truite arc-en-ciel qui nage dans mon coeur.flac" WAVE
  TRACK 01 AUDIO
    TITLE "Je sais ta vie"
    PERFORMER "Cali"
    INDEX 01 00:00:00
  TRACK 02 AUDIO
    TITLE "L'amour fou"
    PERFORMER "Cali"
    INDEX 01 04:57:22
  TRACK 03 AUDIO
    TITLE "Je te veux maintenant"
    PERFORMER "Cali"
    INDEX 01 09:40:35
  TRACK 04 AUDIO
    TITLE "Cantona"
    PERFORMER "Cali"
    INDEX 01 15:20:59
  TRACK 05 AUDIO
    TITLE "Murano"
    PERFORMER "Cali"
    INDEX 01 19:35:58
  TRACK 06 AUDIO
    TITLE "Madame Butterfly"
    PERFORMER "Cali"
    INDEX 01 23:05:44
  TRACK 07 AUDIO
    TITLE "Nous serons tous les deux"
    PERFORMER "Cali"
    INDEX 01 28:12:34
  TRACK 08 AUDIO
    TITLE "Ma douleur"
    PERFORMER "Cali"
    INDEX 01 32:02:54
  TRACK 09 AUDIO
    TITLE "Lettre au Ministre du saccage des familles et des jeunes existences devastees"
    PERFORMER "Cali"
    INDEX 01 37:09:70
  TRACK 10 AUDIO
    TITLE "Je vais arreter de boire"
    PERFORMER "Cali"
    INDEX 01 42:22:72
  TRACK 11 AUDIO
    TITLE "Mille ans d'ennui"
    PERFORMER "Cali"
    INDEX 01 46:23:49
  TRACK 12 AUDIO
    TITLE "Je regarde mes dix-sept ans"
    PERFORMER "Cali"
    INDEX 01 50:28:66
  TRACK 13 AUDIO
    TITLE "Je n'attends que la revanche"
    PERFORMER "Cali"
    INDEX 01 54:16:06



Правила, инструкции, FAQ!!!
Торрент  Добавлен [26 мар 2019, 20:04] Скачать торрент Магнет ссылка
Скачать торрент
[ Размер 16.99 КБ / Просмотров 0 ]

Статус
Проверен 
 
Размер  411.65 МБ
Приватный: Нет (DHT включён)
.torrent скачан  0
 


     Отправить личное сообщение
   
Страница 1 из 1
Показать сообщения за:  Поле сортировки  
Начать новую тему Ответить на тему


Сейчас этот форум просматривают: нет зарегистрированных пользователей и гости: 0


Вы не можете начинать темы
Вы не можете отвечать на сообщения
Вы не можете редактировать свои сообщения
Вы не можете удалять свои сообщения
Вы не можете добавлять вложения

Перейти:  
cron