Начать новую тему Ответить на тему
Статистика раздачи
Размер: 518.3 МБ | Добавлен: 26 мар 2019, 19:59 | Скачали: 1
Сидеров: 2  [0 байт/сек]    Личеров: 0  [0 байт/сек]
Пред. тема | След. тема 

Автор
Сообщение

СообщениеДобавлено: 26 мар 2019, 19:59 

Ответить с цитатой 

Billy Joel - Songs In The Attic
Жанр: Rock, Pop Rock, Soft Rock
Страна-производитель диска: Japan
Год издания диска: 2013
Издатель (лейбл): Sony Music/Legacy Recordings
Номер по каталогу: SICP-30174
Страна: USA
Аудиокодек: FLAC (*.flac)
Тип рипа: image+.cue
Битрейт аудио: lossless
Продолжительность: 00:48:09
Источник (релизер): allekkss48
Наличие сканов в содержимом раздачи:
Треклист:
01. Miami 2017 (Seen The Lights Go Out On Broadway) 05:04
02. Summer, Highland Falls 03:06
03. Streetlife Serenader 05:17
04. Los Angelenos 03:49
05. She's Got A Way 03:00
06. Everybody Loves You Now 03:07
07. Say Goodbye To Hollywood 04:16
08. Captain Jack 07:17
09. You're My Home 03:06
10. The Ballad Of Billy The Kid 05:27
11. I've Loved These Days 04:35
Код:
Exact Audio Copy V1.0 beta 3 from 29. August 2011
EAC extraction logfile from 31. August 2013, 18:36
Billy Joel / Songs In The AtticBSCD2
Used drive  : PLEXTOR BD-R  PX-B950SA   Adapter: 6  ID: 0
Read mode               : Secure
Utilize accurate stream : Yes
Defeat audio cache      : Yes
Make use of C2 pointers : No
Read offset correction                      : 6
Overread into Lead-In and Lead-Out          : No
Fill up missing offset samples with silence : Yes
Delete leading and trailing silent blocks   : No
Null samples used in CRC calculations       : Yes
Used interface                              : Native Win32 interface for Win NT & 2000
Used output format : Internal WAV Routines
Sample format      : 44.100 Hz; 16 Bit; Stereo
TOC of the extracted CD
     Track |   Start  |  Length  | Start sector | End sector
    ---------------------------------------------------------
        1  |  0:00.00 |  5:04.30 |         0    |    22829
        2  |  5:04.30 |  3:06.67 |     22830    |    36846
        3  |  8:11.22 |  5:17.50 |     36847    |    60671
        4  | 13:28.72 |  3:49.15 |     60672    |    77861
        5  | 17:18.12 |  3:00.42 |     77862    |    91403
        6  | 20:18.54 |  3:07.00 |     91404    |   105428
        7  | 23:25.54 |  4:16.73 |    105429    |   124701
        8  | 27:42.52 |  7:17.03 |    124702    |   157479
        9  | 34:59.55 |  3:06.65 |    157480    |   171494
       10  | 38:06.45 |  5:27.05 |    171495    |   196024
       11  | 43:33.50 |  4:35.52 |    196025    |   216701
Range status and errors
Selected range
     Filename C:\Users\Meijin\Desktop\Lossless Galaxy ALLexxess\Billy Joel\1981 Songs In The Attic (Sony Music Japan BSCD2 2013)\Billy Joel - Songs In The AtticBSCD2.wav
     Peak level 99.8 %
     Extraction speed 6.9 X
     Range quality 99.9 %
     Test CRC F4016059
     Copy CRC F4016059
     Copy OK
No errors occurred
AccurateRip summary
Track  1  not present in database
Track  2  not present in database
Track  3  not present in database
Track  4  not present in database
Track  5  not present in database
Track  6  not present in database
Track  7  not present in database
Track  8  not present in database
Track  9  not present in database
Track 10  not present in database
Track 11  not present in database
None of the tracks are present in the AccurateRip database
End of status report
==== Log checksum 8173DF39EDAD41A0F54F2ED7F2FFE0701289B45B7C03FDBD89CAB7F11DBD5BF9 ====
Код:
REM GENRE Rock
REM DATE 1981
REM DISCID 710B490B
REM COMMENT "ExactAudioCopy v1.0b3"
PERFORMER "Billy Joel"
TITLE "Songs In The AtticBSCD2"
FILE "Billy Joel - Songs In The AtticBSCD2.flac" WAVE
  TRACK 01 AUDIO
    TITLE "Miami 2017 (Seen The Lights Go Out On Broadway)"
    PERFORMER "Billy Joel"
    INDEX 01 00:00:00
  TRACK 02 AUDIO
    TITLE "Summer, Highland Falls"
    PERFORMER "Billy Joel"
    INDEX 01 05:04:30
  TRACK 03 AUDIO
    TITLE "Streetlife Serenader"
    PERFORMER "Billy Joel"
    INDEX 01 08:11:22
  TRACK 04 AUDIO
    TITLE "Los Angelenos"
    PERFORMER "Billy Joel"
    INDEX 01 13:28:72
  TRACK 05 AUDIO
    TITLE "She's Got A Way"
    PERFORMER "Billy Joel"
    INDEX 01 17:18:12
  TRACK 06 AUDIO
    TITLE "Everybody Loves You Now"
    PERFORMER "Billy Joel"
    INDEX 01 20:18:54
  TRACK 07 AUDIO
    TITLE "Say Goodbye To Hollywood"
    PERFORMER "Billy Joel"
    INDEX 01 23:25:54
  TRACK 08 AUDIO
    TITLE "Captain Jack"
    PERFORMER "Billy Joel"
    INDEX 01 27:42:52
  TRACK 09 AUDIO
    TITLE "You're My Home"
    PERFORMER "Billy Joel"
    INDEX 01 34:59:55
  TRACK 10 AUDIO
    TITLE "The Ballad Of Billy The Kid"
    PERFORMER "Billy Joel"
    INDEX 01 38:06:45
  TRACK 11 AUDIO
    TITLE "I've Loved These Days"
    PERFORMER "Billy Joel"
    INDEX 01 43:33:50
Код:
-----------------------
DON'T MODIFY THIS FILE
-----------------------
PERFORMER: auCDtect Task Manager, ver. 1.5.1RC3 build 1.5.1.4
Copyright (c) 2008-2010 y-soft. All rights reserved
[url=http://y-soft.org]http://y-soft.org[/url]
ANALYZER: auCDtect: CD records authenticity detector, version 0.8.2
Copyright (c) 2004 Oleg Berngardt. All rights reserved.
Copyright (c) 2004 Alexander Djourik. All rights reserved.
FILE: Billy Joel - Songs In The AtticBSCD2.wav
  Size: 509683148 Hash: 1EBC2DB2421B90A433D3F113155C5563 Accuracy: -m8
  Conclusion: CDDA 100%
  Signature: 54E19B974240A07DBB04A72020E30C6CEDFFA679
FILE: Billy Joel - Songs In The AtticBSCD2.flac
  Size: 320239854 Hash: 1EBC2DB2421B90A433D3F113155C5563 Accuracy: -m8
  Conclusion: CDDA 100%
  Signature: F970A571378CE6825B8EC3CBF6CF692ABC5DFEFA
Доп. информация:
Билли Джоэл (Billy Joel, полное имя Уильям Мартин Джоэл, William Martin Joel, род. 9 мая 1949 г. в Бронксе) — американский автор-исполнитель песен и пианист, один из шести наиболее продаваемых артистов в США за всю историю страны. Обладатель шести наград «Грэмми», в том числе в таких престижных номинациях, как «альбом года» («52nd Street», 1979), «запись года» и «песня года» («Just the Way You Are», 1978).
Правила, инструкции, FAQ!!!
Торрент  Добавлен [26 мар 2019, 19:59] Скачать торрент Магнет ссылка
Скачать торрент
[ Размер 13.75 КБ / Просмотров 4 ]

Статус
Проверен 
 
Размер  518.3 МБ
Приватный: Нет (DHT включён)
.torrent скачан  1
 


     Отправить личное сообщение
   
Страница 1 из 1
Показать сообщения за:  Поле сортировки  
Начать новую тему Ответить на тему


Сейчас этот форум просматривают: нет зарегистрированных пользователей и гости: 0


Вы не можете начинать темы
Вы не можете отвечать на сообщения
Вы не можете редактировать свои сообщения
Вы не можете удалять свои сообщения
Вы не можете добавлять вложения

Перейти:  
cron