Начать новую тему Ответить на тему
Статистика раздачи
Размер: 439.63 МБ | Добавлен: 26 мар 2019, 21:07 | Скачали: 1
Сидеров: 1  [0 байт/сек]    Личеров: 0  [0 байт/сек]
Пред. тема | След. тема 

Автор
Сообщение

СообщениеДобавлено: 26 мар 2019, 21:07 

Ответить с цитатой 

Billy Joel - An Innocent Man
Жанр: Rock, Pop Rock, Soft Rock
Страна-производитель диска: Japan
Год издания диска: 2013
Издатель (лейбл): Sony Music/Legacy Recordings
Номер по каталогу: SICP-30176
Страна: USA
Аудиокодек: FLAC (*.flac)
Тип рипа: image+.cue
Битрейт аудио: lossless
Продолжительность: 00:40:30
Источник (релизер): allekkss48
Наличие сканов в содержимом раздачи:
Треклист:
01. Easy Money 04:05
02. An Innocent Man 05:18
03. The Longest Time 03:42
04. This Night 04:18
05. Tell Her About It 03:52
06. Uptown Girl 03:17
07. Careless Talk 03:48
08. Christie Lee 03:31
09. Leave A Tender Moment Alone 03:56
10. Keeping The Faith 04:39
Код:
Exact Audio Copy V1.0 beta 3 from 29. August 2011
EAC extraction logfile from 31. August 2013, 13:23
Billy Joel / An Innocent Man BSCD2
Used drive : PLEXTOR BD-R PX-B950SA Adapter: 6 ID: 0
Read mode : Secure
Utilize accurate stream : Yes
Defeat audio cache : Yes
Make use of C2 pointers : No
Read offset correction : 6
Overread into Lead-In and Lead-Out : No
Fill up missing offset samples with silence : Yes
Delete leading and trailing silent blocks : No
Null samples used in CRC calculations : Yes
Used interface : Native Win32 interface for Win NT & 2000
Used output format : Internal WAV Routines
Sample format : 44.100 Hz; 16 Bit; Stereo
TOC of the extracted CD
 Track | Start | Length | Start sector | End sector
 ---------------------------------------------------------
 1 | 0:00.00 | 4:05.00 | 0 | 18374
 2 | 4:05.00 | 5:18.00 | 18375 | 42224
 3 | 9:23.00 | 3:42.40 | 42225 | 58914
 4 | 13:05.40 | 4:18.00 | 58915 | 78264
 5 | 17:23.40 | 3:52.57 | 78265 | 95721
 6 | 21:16.22 | 3:17.53 | 95722 | 110549
 7 | 24:34.00 | 3:48.35 | 110550 | 127684
 8 | 28:22.35 | 3:31.07 | 127685 | 143516
 9 | 31:53.42 | 3:56.53 | 143517 | 161269
 10 | 35:50.20 | 4:39.42 | 161270 | 182236
Range status and errors
Selected range
 Filename C:\Users\Meijin\Desktop\Lossless Galaxy ALLexxess\Billy Joel\1983 An Innocent Man (Sony Music Japan BSCD2 2013)\Billy Joel - An Innocent Man BSCD2.wav
 Peak level 99.8 %
 Extraction speed 6.7 X
 Range quality 100.0 %
 Test CRC EA99B11E
 Copy CRC EA99B11E
 Copy OK
No errors occurred
AccurateRip summary
Track 1 not present in database
Track 2 not present in database
Track 3 not present in database
Track 4 not present in database
Track 5 not present in database
Track 6 not present in database
Track 7 not present in database
Track 8 not present in database
Track 9 not present in database
Track 10 not present in database
None of the tracks are present in the AccurateRip database
End of status report
==== Log checksum 8FF9A410DE22CDBBEA17A796562DDF7E81DB160E44DFBF9CF37937AC6C657824 ====
Код:
REM GENRE Rock
REM DATE 1983
REM DISCID 89097D0A
REM COMMENT "ExactAudioCopy v1.0b3"
PERFORMER "Billy Joel"
TITLE "An Innocent Man BSCD2"
FILE "Billy Joel - An Innocent Man BSCD2.flac" WAVE
  TRACK 01 AUDIO
    TITLE "Easy Money"
    PERFORMER "Billy Joel"
    INDEX 01 00:00:00
  TRACK 02 AUDIO
    TITLE "An Innocent Man"
    PERFORMER "Billy Joel"
    INDEX 01 04:05:00
  TRACK 03 AUDIO
    TITLE "The Longest Time"
    PERFORMER "Billy Joel"
    INDEX 01 09:23:00
  TRACK 04 AUDIO
    TITLE "This Night"
    PERFORMER "Billy Joel"
    INDEX 00 13:03:35
    INDEX 01 13:05:40
  TRACK 05 AUDIO
    TITLE "Tell Her About It"
    PERFORMER "Billy Joel"
    INDEX 00 17:22:22
    INDEX 01 17:23:40
  TRACK 06 AUDIO
    TITLE "Uptown Girl"
    PERFORMER "Billy Joel"
    INDEX 00 21:14:47
    INDEX 01 21:16:22
  TRACK 07 AUDIO
    TITLE "Careless Talk"
    PERFORMER "Billy Joel"
    INDEX 01 24:34:00
  TRACK 08 AUDIO
    TITLE "Christie Lee"
    PERFORMER "Billy Joel"
    INDEX 01 28:22:35
  TRACK 09 AUDIO
    TITLE "Leave A Tender Moment Alone"
    PERFORMER "Billy Joel"
    INDEX 01 31:53:42
  TRACK 10 AUDIO
    TITLE "Keeping The Faith"
    PERFORMER "Billy Joel"
    INDEX 01 35:50:20
Код:
-----------------------
DON'T MODIFY THIS FILE
-----------------------
PERFORMER: auCDtect Task Manager, ver. 1.5.1RC3 build 1.5.1.4
Copyright (c) 2008-2010 y-soft. All rights reserved
[url=http://y-soft.org]http://y-soft.org[/url]
ANALYZER: auCDtect: CD records authenticity detector, version 0.8.2
Copyright (c) 2004 Oleg Berngardt. All rights reserved.
Copyright (c) 2004 Alexander Djourik. All rights reserved.
FILE: Billy Joel - An Innocent Man BSCD2.wav
 Size: 428621468 Hash: A6DDDAF4AC90CEF8A8E0D1722DDB2514 Accuracy: -m8
 Conclusion: CDDA 100%
 Signature: 524E6605402D732FB304AFCDD933DC3DFC276435
FILE: Billy Joel - An Innocent Man BSCD2.flac
 Size: 272896762 Hash: A6DDDAF4AC90CEF8A8E0D1722DDB2514 Accuracy: -m8
 Conclusion: CDDA 100%
 Signature: BDC4B42C1AE55059A5D7631FE1AB4D9236B47647
Доп. информация:
Билли Джоэл (Billy Joel, полное имя Уильям Мартин Джоэл, William Martin Joel, род. 9 мая 1949 г. в Бронксе) — американский автор-исполнитель песен и пианист, один из шести наиболее продаваемых артистов в США за всю историю страны. Обладатель шести наград «Грэмми», в том числе в таких престижных номинациях, как «альбом года» («52nd Street», 1979), «запись года» и «песня года» («Just the Way You Are», 1978).
Правила, инструкции, FAQ!!!
Торрент  Добавлен [26 мар 2019, 21:07] Скачать торрент Магнет ссылка
Скачать торрент
[ Размер 20.32 КБ / Просмотров 3 ]

Статус
Проверен 
 
Размер  439.63 МБ
Приватный: Нет (DHT включён)
.torrent скачан  1
 


     Отправить личное сообщение
   
Страница 1 из 1
Показать сообщения за:  Поле сортировки  
Начать новую тему Ответить на тему


Сейчас этот форум просматривают: нет зарегистрированных пользователей и гости: 0


Вы не можете начинать темы
Вы не можете отвечать на сообщения
Вы не можете редактировать свои сообщения
Вы не можете удалять свои сообщения
Вы не можете добавлять вложения

Перейти:  
cron