Начать новую тему Ответить на тему
Статистика раздачи
Размер: 474.6 МБ | Добавлен: 26 мар 2019, 20:33 | Скачали: 2
Сидеров: 5  [0 байт/сек]    Личеров: 13  [0 байт/сек]
Пред. тема | След. тема 

Автор
Сообщение

СообщениеДобавлено: 26 мар 2019, 20:33 

Ответить с цитатой 

.
MARC TERENZI

AWELSOME
(CD, Album, Enhanced, Marc Eric Terenzi, Singer and guitar player,
born on June 27, 1978 in Natick, Massachusetts.)
.
Жанр: Rock, Pop Rock, Soft Rock, Ballad
Носитель
: CD
Страна-производитель диска (релиза): Germany
Год издания: 2005
Издатель (лейбл): X-cell Records
Номер по каталогу: 82876 73490 2
Страна исполнителя (группы): U.S.
Аудиокодек: FLAC (*.flac)
Тип рипа: image+.cue
Битрейт аудио: lossless
Продолжительность: 00:54:25
Источник (релизер): stas64
Наличие сканов в содержимом раздачи: да 600 dpi
.
Видео на CD -
.
Треклист:
01. Love to Be Loved By You (The Wedding Song).
02. Can't Breathe Without You.
03. Heat Between The Sheets.
04. Painted On My Heart.
05. Cut My Veins.
06. My Angel For A Day.
07. Just Let Me Be.
08. Rock The Nation.
09. Runaway.
10. Red Rose.
11. Tonight.
12. Heroes Ride Alone.
13. Forever Will Always Be.
14. Fanatic.







Код:
Exact Audio Copy V1.1 from 23. June 2015
Отчёт EAC об извлечении, выполненном 18. июля 2016, 0:08
Marc Terenzi / Awesome
Дисковод: PLEXTOR DVDR   PX-712A   Adapter: 8  ID: 0
Режим чтения                 : Достоверность
Использование точного потока : Да
Отключение кэша аудио        : Да
Использование указателей C2  : Нет
Коррекция смещения при чтении                     : 30
Способность читать области Lead-in и Lead-out     : Нет
Заполнение пропущенных сэмплов тишиной            : Да
Удаление блоков с тишиной в начале и конце        : Нет
При вычислениях CRC использовались нулевые сэмплы : Да
Интерфейс                                         : Установленный внешний ASPI-интерфейс
Выходной формат          : Пользовательский кодировщик
Выбранный битрейт        : 128 kBit/s
Качество                 : Высокий
Добавление ID3-тега      : Нет
Утилита сжатия           : C:\Program Files\Exact Audio Copy\FLAC\FLAC.EXE
Дополнительные параметры : -V -8 -T "Genre=%genre%" -T "Artist=%artist%" -T "Title=%title%" -T "Album=%albumtitle%" -T "Date=%year%" -T "Tracknumber=%tracknr%" -T "Comment=%comment%" %source%
TOC извлечённого CD
     Трек |   Старт  | Длительность | Начальный сектор | Конечный сектор
    ---------------------------------------------------------------------
       1  |  0:00.00 |    3:58.64   |           0      |      17913
       2  |  3:58.64 |    4:15.60   |       17914      |      37098
       3  |  8:14.49 |    3:58.17   |       37099      |      54965
       4  | 12:12.66 |    3:50.28   |       54966      |      72243
       5  | 16:03.19 |    3:48.26   |       72244      |      89369
       6  | 19:51.45 |    2:59.42   |       89370      |     102836
       7  | 22:51.12 |    4:49.55   |      102837      |     124566
       8  | 27:40.67 |    4:04.72   |      124567      |     142938
       9  | 31:45.64 |    3:17.41   |      142939      |     157754
      10  | 35:03.30 |    3:59.52   |      157755      |     175731
      11  | 39:03.07 |    4:03.21   |      175732      |     193977
      12  | 43:06.28 |    3:33.38   |      193978      |     209990
      13  | 46:39.66 |    4:06.10   |      209991      |     228450
      14  | 50:46.01 |    3:39.68   |      228451      |     244943
      15  | 56:57.69 |   12:23.38   |      256344      |     312106
Характеристики диапазона извлечения и сообщения об ошибках
Выбранный диапазон
     Имя файла I:\MOI_RAZDACI\Marc Terenzi 2005\Marc.Terenzi_Awesome_2005\Marc Terenzi - Awesome.wav
     Пиковый уровень 100.0 %
     Скорость извлечения 12.8 X
     Качество диапазона 99.9 %
     CRC теста 03EF214F
     CRC копии 03EF214F
     Копирование... OK
Ошибок не произошло
AccurateRip: сводка
Трек  1  отсутствует в базе данных
Трек  2  отсутствует в базе данных
Трек  3  отсутствует в базе данных
Трек  4  отсутствует в базе данных
Трек  5  отсутствует в базе данных
Трек  6  отсутствует в базе данных
Трек  7  отсутствует в базе данных
Трек  8  отсутствует в базе данных
Трек  9  отсутствует в базе данных
Трек 10  отсутствует в базе данных
Трек 11  отсутствует в базе данных
Трек 12  отсутствует в базе данных
Трек 13  отсутствует в базе данных
Трек 14  отсутствует в базе данных
Ни одного трека нет в базе AccurateRip
Конец отчёта
---- CUETools DB Plugin V2.1.6
[CTDB TOCID: rZ__cB_teKMXQWMDgr9SakOo4m0-] found
Submit result: rZ__cB_teKMXQWMDgr9SakOo4m0- has been confirmed
Track | CTDB Status
  1   | (7/7) Accurately ripped
  2   | (7/7) Accurately ripped
  3   | (7/7) Accurately ripped
  4   | (7/7) Accurately ripped
  5   | (7/7) Accurately ripped
  6   | (7/7) Accurately ripped
  7   | (7/7) Accurately ripped
  8   | (7/7) Accurately ripped
  9   | (7/7) Accurately ripped
 10   | (7/7) Accurately ripped
 11   | (7/7) Accurately ripped
 12   | (7/7) Accurately ripped
 13   | (7/7) Accurately ripped
 14   | (7/7) Accurately ripped
==== Контрольная сумма отчёта A176E402B0E316BF73CEB8F57FDF2F8988A79195D62C7E06336839AFCA3B4EED ====
Код:
REM GENRE Pop
REM DATE 2005
REM DISCID D110410F
REM COMMENT "ExactAudioCopy v1.1"
CATALOG 0828767349022
PERFORMER "Marc Terenzi"
TITLE "Awesome"
FILE "Marc Terenzi - Awesome.flac" WAVE
  TRACK 01 AUDIO
    TITLE "Love to Be Loved By You (The Wedding Song)"
    PERFORMER "Marc Terenzi"
    ISRC DEX570500106
    INDEX 01 00:00:00
  TRACK 02 AUDIO
    TITLE "Can't Breathe Without You"
    PERFORMER "Marc Terenzi"
    ISRC DEX570500114
    INDEX 00 03:57:36
    INDEX 01 03:58:64
  TRACK 03 AUDIO
    TITLE "Heat Between The Sheets"
    PERFORMER "Marc Terenzi"
    ISRC DEX570500046
    INDEX 01 08:14:49
  TRACK 04 AUDIO
    TITLE "Painted On My Heart"
    PERFORMER "Marc Terenzi"
    ISRC DEX570500115
    INDEX 00 12:12:45
    INDEX 01 12:12:66
  TRACK 05 AUDIO
    TITLE "Cut My Veins"
    PERFORMER "Marc Terenzi"
    ISRC DEX570500116
    INDEX 00 16:03:16
    INDEX 01 16:03:19
  TRACK 06 AUDIO
    TITLE "My Angel For A Day"
    PERFORMER "Marc Terenzi"
    ISRC DEX570500117
    INDEX 00 19:51:04
    INDEX 01 19:51:45
  TRACK 07 AUDIO
    TITLE "Just Let Me Be"
    PERFORMER "Marc Terenzi"
    ISRC DEX570500055
    INDEX 00 22:51:09
    INDEX 01 22:51:12
  TRACK 08 AUDIO
    TITLE "Rock The Nation"
    PERFORMER "Marc Terenzi"
    ISRC DEX570500118
    INDEX 00 27:39:71
    INDEX 01 27:40:67
  TRACK 09 AUDIO
    TITLE "Runaway"
    PERFORMER "Marc Terenzi"
    ISRC DEX570500119
    INDEX 01 31:45:64
  TRACK 10 AUDIO
    TITLE "Red Rose"
    PERFORMER "Marc Terenzi"
    ISRC DEX570500120
    INDEX 00 35:02:61
    INDEX 01 35:03:30
  TRACK 11 AUDIO
    TITLE "Tonight"
    PERFORMER "Marc Terenzi"
    ISRC DEX570500121
    INDEX 00 39:02:23
    INDEX 01 39:03:07
  TRACK 12 AUDIO
    TITLE "Heroes Ride Alone"
    PERFORMER "Marc Terenzi"
    ISRC DEX570500122
    INDEX 00 43:06:23
    INDEX 01 43:06:28
  TRACK 13 AUDIO
    TITLE "Forever Will Always Be"
    PERFORMER "Marc Terenzi"
    ISRC DEX570500123
    INDEX 00 46:39:10
    INDEX 01 46:39:66
  TRACK 14 AUDIO
    TITLE "Fanatic"
    PERFORMER "Marc Terenzi"
    ISRC DEX570500108
    INDEX 00 50:44:59
    INDEX 01 50:46:01
Код:
-----------------------
DON'T MODIFY THIS FILE
-----------------------
PERFORMER: auCDtect Task Manager, ver. 1.5.1RC6 build 1.5.1.7
Copyright (c) 2008-2010 y-soft. All rights reserved
[url=http://y-soft.org]http://y-soft.org[/url]
ANALYZER: auCDtect: CD records authenticity detector, version 0.8.2
Copyright (c) 2004 Oleg Berngardt. All rights reserved.
Copyright (c) 2004 Alexander Djourik. All rights reserved.
FILE: Marc Terenzi - Awesome.flac
  Size: 416353532 Hash: F35BDEEAC55C4BE207889D0C539CBA10 Accuracy: -m0
  Conclusion: CDDA 100%
  Signature: D7FC410232806940F94ED6E9DAD3E416868452B4
Правила, инструкции, FAQ!!!
Торрент  Добавлен [26 мар 2019, 20:33] Скачать торрент Магнет ссылка
Скачать торрент
[ Размер 19.72 КБ / Просмотров 12 ]

Статус
Проверен 
 
Размер  474.6 МБ
Приватный: Нет (DHT включён)
.torrent скачан  2
 


     Отправить личное сообщение
   
Страница 1 из 1
Показать сообщения за:  Поле сортировки  
Начать новую тему Ответить на тему


Сейчас этот форум просматривают: нет зарегистрированных пользователей и гости: 0


Вы не можете начинать темы
Вы не можете отвечать на сообщения
Вы не можете редактировать свои сообщения
Вы не можете удалять свои сообщения
Вы не можете добавлять вложения

Перейти:  
cron
cron