Начать новую тему Ответить на тему
Статистика раздачи
Размер: 459.52 МБ | Добавлен: 26 мар 2019, 21:02 | Скачали: 1
Сидеров: 109  [0 байт/сек]    Личеров: 1  [0 байт/сек]
Пред. тема | След. тема 

Автор
Сообщение

СообщениеДобавлено: 26 мар 2019, 21:02 

Ответить с цитатой 

Sad Café / The Best Of
Жанр: Rock, Pop Rock
Носитель: CD
Страна-производитель диска (релиза): EU
Год издания: 2001
Издатель (лейбл): Camden
Номер по каталогу: 74321 843812
Страна исполнителя (группы): England
Аудиокодек: FLAC (*.flac)
Тип рипа: image+.cue
Битрейт аудио: lossless
Продолжительность: 01:11:21
Источник (релизер): London
Наличие сканов в содержимом раздачи: да
Треклист:
01. Everyday Hurts
02. Strange Little Girl
03. Hungry Eyes
04. Black Rose
05. Sail On
06. I'm In Love Again
07. La-Di-Da
08. My Oh My
09. Nothing Left Toulouse
10. I Believe (Love Will Survive)
11. Angel
12. Let Love Speak For Itself
13. Losing You
14. Dreaming
15. Take Me To The Future
16. Crazy Oyster
Код:
Exact Audio Copy V1.0 beta 6 from 9. April 2015
EAC extraction logfile from 18. June 2018, 21:33
Sad Cafe / Very Best Of
Used drive  : ATAPI   iHAS122   C   Adapter: 1  ID: 0
Read mode               : Secure
Utilize accurate stream : Yes
Defeat audio cache      : Yes
Make use of C2 pointers : No
Read offset correction                      : 6
Overread into Lead-In and Lead-Out          : No
Fill up missing offset samples with silence : Yes
Delete leading and trailing silent blocks   : No
Null samples used in CRC calculations       : Yes
Used interface                              : Native Win32 interface for Win NT & 2000
Used output format : Internal WAV Routines
Sample format      : 44.100 Hz; 16 Bit; Stereo
TOC of the extracted CD
     Track |   Start  |  Length  | Start sector | End sector
    ---------------------------------------------------------
        1  |  0:00.00 |  4:05.62 |         0    |    18436
        2  |  4:05.62 |  5:03.65 |     18437    |    41226
        3  |  9:09.52 |  5:26.48 |     41227    |    65724
        4  | 14:36.25 |  4:35.57 |     65725    |    86406
        5  | 19:12.07 |  2:56.10 |     86407    |    99616
        6  | 22:08.17 |  4:41.00 |     99617    |   120691
        7  | 26:49.17 |  5:03.28 |    120692    |   143444
        8  | 31:52.45 |  3:55.47 |    143445    |   161116
        9  | 35:48.17 |  4:33.38 |    161117    |   181629
       10  | 40:21.55 |  4:33.07 |    181630    |   202111
       11  | 44:54.62 |  3:46.38 |    202112    |   219099
       12  | 48:41.25 |  6:08.32 |    219100    |   246731
       13  | 54:49.57 |  3:48.43 |    246732    |   263874
       14  | 58:38.25 |  4:11.35 |    263875    |   282734
       15  | 62:49.60 |  4:05.57 |    282735    |   301166
       16  | 66:55.42 |  4:25.33 |    301167    |   321074
Range status and errors
Selected range
     Filename C:\Users\London\Desktop\Sad Cafe - Very Best Of.wav
     Peak level 100.0 %
     Extraction speed 10.0 X
     Range quality 100.0 %
     Test CRC 7E0BEB8D
     Copy CRC 7E0BEB8D
     Copy OK
No errors occurred
End of status report
---- CUETools DB Plugin V2.1.6
[CTDB TOCID: VOGhzDqZh2BwIw9pLm3S22dpDdY-] found
Submit result: already submitted
Track | CTDB Status
  1   | (17/17) Accurately ripped
  2   | (17/17) Accurately ripped
  3   | (17/17) Accurately ripped
  4   | (17/17) Accurately ripped
  5   | (17/17) Accurately ripped
  6   | (17/17) Accurately ripped
  7   | (17/17) Accurately ripped
  8   | (17/17) Accurately ripped
  9   | (16/17) Accurately ripped
 10   | (17/17) Accurately ripped
 11   | (17/17) Accurately ripped
 12   | (17/17) Accurately ripped
 13   | (17/17) Accurately ripped
 14   | (17/17) Accurately ripped
 15   | (16/17) Accurately ripped
 16   | (17/17) Accurately ripped
==== Log checksum FA50BC878439F2E51BDBCA5FB33ABA663F79831D6717E1935C64F5C2A6AEA901 ====
Код:
REM GENRE "Slow Rock"
REM DATE 2001
REM DISCID CC10B910
REM COMMENT "ExactAudioCopy v1.0b6"
PERFORMER "Sad Cafe"
TITLE "Very Best Of"
FILE "Sad Cafe - Very Best Of.flac" WAVE
  TRACK 01 AUDIO
    TITLE "Every Day Hurts"
    PERFORMER "Sad Cafe"
    INDEX 01 00:00:00
  TRACK 02 AUDIO
    TITLE "Strange Little Girl"
    PERFORMER "Sad Cafe"
    INDEX 00 04:05:30
    INDEX 01 04:05:62
  TRACK 03 AUDIO
    TITLE "Hungry Eyes"
    PERFORMER "Sad Cafe"
    INDEX 00 09:09:50
    INDEX 01 09:09:52
  TRACK 04 AUDIO
    TITLE "Black Rose"
    PERFORMER "Sad Cafe"
    INDEX 00 14:36:10
    INDEX 01 14:36:25
  TRACK 05 AUDIO
    TITLE "Sail On"
    PERFORMER "Sad Cafe"
    INDEX 00 19:11:32
    INDEX 01 19:12:07
  TRACK 06 AUDIO
    TITLE "I'm In Love Again"
    PERFORMER "Sad Cafe"
    INDEX 00 22:07:72
    INDEX 01 22:08:17
  TRACK 07 AUDIO
    TITLE "La-Di-Da"
    PERFORMER "Sad Cafe"
    INDEX 00 26:49:00
    INDEX 01 26:49:17
  TRACK 08 AUDIO
    TITLE "My Oh My"
    PERFORMER "Sad Cafe"
    INDEX 00 31:51:50
    INDEX 01 31:52:45
  TRACK 09 AUDIO
    TITLE "Nothing Left Toulouse"
    PERFORMER "Sad Cafe"
    INDEX 00 35:47:62
    INDEX 01 35:48:17
  TRACK 10 AUDIO
    TITLE "I Believe (Love Will Survive)"
    PERFORMER "Sad Cafe"
    INDEX 00 40:21:30
    INDEX 01 40:21:55
  TRACK 11 AUDIO
    TITLE "Angel"
    PERFORMER "Sad Cafe"
    INDEX 00 44:53:35
    INDEX 01 44:54:62
  TRACK 12 AUDIO
    TITLE "Let Love Speak For Itself"
    PERFORMER "Sad Cafe"
    INDEX 00 48:40:65
    INDEX 01 48:41:25
  TRACK 13 AUDIO
    TITLE "Losing You"
    PERFORMER "Sad Cafe"
    INDEX 00 54:49:22
    INDEX 01 54:49:57
  TRACK 14 AUDIO
    TITLE "Dreaming"
    PERFORMER "Sad Cafe"
    INDEX 00 58:37:52
    INDEX 01 58:38:25
  TRACK 15 AUDIO
    TITLE "Take Me To The Future"
    PERFORMER "Sad Cafe"
    INDEX 00 62:49:17
    INDEX 01 62:49:60
  TRACK 16 AUDIO
    TITLE "Crazy Oyster"
    PERFORMER "Sad Cafe"
    INDEX 00 66:55:02
    INDEX 01 66:55:42
Код:
foobar2000 1.3.13 / Замер динамического диапазона (DR) 1.1.1
Дата отчёта:  2018-06-18 21:38:46
--------------------------------------------------------------------------------
Анализ:   Sad Cafe / Very Best Of
--------------------------------------------------------------------------------
DR         Пики         RMS           Продолжительность трека
--------------------------------------------------------------------------------
DR12      -0.33 дБ   -16.65 дБ      4:06 01-Every Day Hurts
DR13       0.00 дБ   -15.83 дБ      5:04 02-Strange Little Girl
DR10      -0.45 дБ   -15.44 дБ      5:27 03-Hungry Eyes
DR11      -0.77 дБ   -13.99 дБ      4:36 04-Black Rose
DR10      -0.50 дБ   -16.40 дБ      2:56 05-Sail On
DR14      -0.68 дБ   -18.58 дБ      4:41 06-I'm In Love Again
DR15      -0.09 дБ   -18.63 дБ      5:03 07-La-Di-Da
DR13      -0.57 дБ   -17.90 дБ      3:56 08-My Oh My
DR11      -1.25 дБ   -17.51 дБ      4:34 09-Nothing Left Toulouse
DR11       0.00 дБ   -14.32 дБ      4:33 10-I Believe (Love Will Survive)
DR12      -0.82 дБ   -15.86 дБ      3:47 11-Angel
DR12      -0.34 дБ   -14.98 дБ      6:08 12-Let Love Speak For Itself
DR13      -1.08 дБ   -16.52 дБ      3:49 13-Losing You
DR13      -0.37 дБ   -19.21 дБ      4:11 14-Dreaming
DR12      -0.79 дБ   -14.70 дБ      4:06 15-Take Me To The Future
DR11      -0.87 дБ   -15.08 дБ      4:25 16-Crazy Oyster
--------------------------------------------------------------------------------
Количество треков: 16
Реальные значения DR: DR12
Частота:   44100 Гц
Каналов:   2
Разрядность:   16
Битрейт:   860 кбит/с
Кодек:   FLAC
================================================================================
This compilation ℗1997 & ©2001 BMG Entertainment International UK & Ireland Ltd.
https://en.wikipedia.org/wiki/Sad_Café_(band)

Раздаю до первых 5-ти скачавших, на раздачи не возвращаюсь...

Правила, инструкции, FAQ!!!
Торрент  Добавлен [26 мар 2019, 21:02] Скачать торрент Магнет ссылка
Скачать торрент
[ Размер 18.82 КБ / Просмотров 2 ]

Статус
Проверен 
 
Размер  459.52 МБ
Приватный: Нет (DHT включён)
.torrent скачан  1
 


     Отправить личное сообщение
   
Страница 1 из 1
Показать сообщения за:  Поле сортировки  
Начать новую тему Ответить на тему


Сейчас этот форум просматривают: нет зарегистрированных пользователей и гости: 0


Вы не можете начинать темы
Вы не можете отвечать на сообщения
Вы не можете редактировать свои сообщения
Вы не можете удалять свои сообщения
Вы не можете добавлять вложения

Перейти:  
cron