Начать новую тему Ответить на тему
Статистика раздачи
Размер: 237.61 МБ | Добавлен: 26 мар 2019, 20:08 | Скачали: 0
Сидеров: 0  [0 байт/сек]    Личеров: 0  [0 байт/сек]
Пред. тема | След. тема 

Автор
Сообщение

СообщениеДобавлено: 26 мар 2019, 20:08 

Ответить с цитатой 

Rabbitt - Boys Will Be Boys! (1976, Remastered)
Жанр: Rock, Pop Rock
Год выпуска диска: 2004
Производитель диска: UK
Аудио кодек: APE
Тип рипа: image+.cue
Битрейт аудио: lossless
Продолжительность: 34 m 20 s
Доп. информация:
Voiceprint cat # VP312CD
Johannesburg, South Africa Years active 1972-78
Trevor Rabin: Vocals, lead guitar, keyboards
Duncan Faure (born 16 December 1956): Vocals, guitars, keyboards
Ronnie Robot (Ronald Friedman) (born 5 October 1954): Bass guitar
Neil Cloud (born 3 September 1955): Drums
1976 Rabbitt releases their first album, Boys Will Be Boys . Album becomes a gold record faster than any other South African record. Rabbitt wins a Sarie award, the South African equivalent of a Grammy award, for Best Contemporary Pop Music.
Трэклист:
01. Something's Going Wrong With My Baby [0:03:53.37]
02. Savage [0:04:48.25]
03. Lifeline [0:06:02.15]
04. Locomotive Breath [0:03:46.73]
05. Hard Ride [0:04:12.55]
06. Baby's Leaving [0:02:26.07]
07. Eventides [0:02:38.50]
08. Looking For The Man [0:03:09.00]
09. Death Of Tulio [0:00:30.58]
10. Charlie [0:02:50.55]
Код:
Exact Audio Copy V0.99 prebeta 5 from 4. May 2009
Отчёт EAC об извлечении, выполненном 9. января 2010, 12:34
Rabbitt / Boys Will Be Boys!
Дисковод: PLEXTOR DVDR   PX-810SA   Adapter: 1  ID: 0
Режим чтения                 : Достоверность
Использование точного потока : Да
Отключение кэша аудио        : Да
Использование указателей C2  : Нет
Коррекция смещения при чтении                     : 48
Способность читать области Lead-in и Lead-out     : Нет
Заполнение пропущенных сэмплов тишиной            : Да
Удаление блоков с тишиной в начале и конце        : Нет
При вычислениях CRC использовались нулевые сэмплы : Да
Интерфейс                                         : Встроенный Win32-интерфейс для Win NT/2000
Выходной формат          : Monkey's Audio (без потерь)
Выбранный битрейт        : Normal Lossless Compression
Качество                 : Высокий
Добавление ID3-тэга      : Нет
Утилита сжатия           : C:\Program Files\Exact Audio Copy\MAC.exe
TOC извлечённого CD
     Трек |   Старт  | Длительность | Начальный сектор | Конечный сектор
    ---------------------------------------------------------------------
       1  |  0:00.00 |    3:53.37   |           0      |      17511
       2  |  3:53.37 |    4:48.25   |       17512      |      39136
       3  |  8:41.62 |    6:02.15   |       39137      |      66301
       4  | 14:44.02 |    3:46.73   |       66302      |      83324
       5  | 18:31.00 |    4:12.55   |       83325      |     102279
       6  | 22:43.55 |    2:26.07   |      102280      |     113236
       7  | 25:09.62 |    2:38.50   |      113237      |     125136
       8  | 27:48.37 |    3:09.00   |      125137      |     139311
       9  | 30:57.37 |    0:30.58   |      139312      |     141619
      10  | 31:28.20 |    2:50.55   |      141620      |     154424
Характеристики диапазона извлечения и сообщения об ошибках
Выбранный диапазон
     Имя файла D:\Rabbitt - Boys Will Be Boys!\Rabbitt - Boys Will Be Boys!.wav
     Пиковый уровень 97.7 %
     Качество диапазона 99.9 %
     CRC теста C4AADD54
     CRC копии C4AADD54
     Копирование... OK
Ошибок не произошло
AccurateRip: сводка
Трек  1  точность не определена (достоверность 1)  [30F40F88], AccurateRip вернул [40056F8E]
Трек  2  точность не определена (достоверность 1)  [F23BEC58], AccurateRip вернул [3D7AD8A6]
Трек  3  точность не определена (достоверность 1)  [06E69DB6], AccurateRip вернул [298B2560]
Трек  4  точность не определена (достоверность 1)  [EE2DCC07], AccurateRip вернул [82E05871]
Трек  5  точность не определена (достоверность 1)  [7CD44ECC], AccurateRip вернул [3D60F58C]
Трек  6  точность не определена (достоверность 1)  [BB06266B], AccurateRip вернул [26A13237]
Трек  7  точность не определена (достоверность 1)  [A9B5B800], AccurateRip вернул [16CAA908]
Трек  8  точность не определена (достоверность 1)  [8319F0DD], AccurateRip вернул [9C7919F5]
Трек  9  точность не определена (достоверность 1)  [1B5E5EC7], AccurateRip вернул [32AE1C8B]
Трек 10  точность не определена (достоверность 1)  [28C2A342], AccurateRip вернул [A63A2BAC]
Ни один трек не прошёл проверки на точность
В вашей базе может быть иной вариант штамповки диска
Конец отчёта
Правила, инструкции, FAQ!!!
Торрент  Добавлен [26 мар 2019, 20:08] Скачать торрент Магнет ссылка
Скачать торрент
[ Размер 19.42 КБ / Просмотров 1 ]

Статус
Проверен 
 
Размер  237.61 МБ
Приватный: Нет (DHT включён)
.torrent скачан  0
 


     Отправить личное сообщение
   
Страница 1 из 1
Показать сообщения за:  Поле сортировки  
Начать новую тему Ответить на тему


Сейчас этот форум просматривают: нет зарегистрированных пользователей и гости: 0


Вы не можете начинать темы
Вы не можете отвечать на сообщения
Вы не можете редактировать свои сообщения
Вы не можете удалять свои сообщения
Вы не можете добавлять вложения

Перейти:  
cron
cron