Начать новую тему Ответить на тему
Статистика раздачи
Размер: 265.83 МБ | Добавлен: 26 мар 2019, 18:48 | Скачали: 0
Сидеров: 2  [0 байт/сек]    Личеров: 0  [0 байт/сек]
Пред. тема | След. тема 

Автор
Сообщение

СообщениеДобавлено: 26 мар 2019, 18:48 

Ответить с цитатой 

The Monomes / Sweet champagne
Жанр: rock, pop-rock, pop, indie
Страна-производитель диска: Испания
Год издания: 2011
Издатель (лейбл): Sony Music Entertaiment Spain
Номер по каталогу: 8007DB0A
Страна: Испания
Аудиокодек: FLAC (*.flac)
Тип рипа: image+.cue
Битрейт аудио: lossless
Продолжительность: 00:33:31
Источник (релизер): Собственный рип
Наличие сканов в содержимом раздачи: да
01 - View
02 - Perfect man
03 - Crash and burn
04 - Tip toeing
05 - All Aloner
06 - Sweet champagne
07 - Night and days
08 - It's Okay
09 - Give her away
10 - Dreamkiller
Код:
Exact Audio Copy V1.0 beta 3 from 29. August 2011
EAC extraction logfile from 8. February 2013, 16:56
The monomes / Sweet champagne
Used drive  : PIONEER DVD-RW  DVR-110D   Adapter: 0  ID: 0
Read mode               : Secure
Utilize accurate stream : Yes
Defeat audio cache      : Yes
Make use of C2 pointers : No
Read offset correction                      : 48
Overread into Lead-In and Lead-Out          : No
Fill up missing offset samples with silence : Yes
Delete leading and trailing silent blocks   : No
Null samples used in CRC calculations       : Yes
Used interface                              : Native Win32 interface for Win NT & 2000
Used output format              : User Defined Encoder
Selected bitrate                : 128 kBit/s
Quality                         : High
Add ID3 tag                     : No
Command line compressor         : C:\Program Files (x86)\FLAC\flac.exe
Additional command line options : -V -8 -T "Date=%year%" -T "Genre=%genre%" %source%
TOC of the extracted CD
     Track |   Start  |  Length  | Start sector | End sector
    ---------------------------------------------------------
        1  |  0:00.00 |  3:13.65 |         0    |    14539
        2  |  3:13.65 |  3:33.40 |     14540    |    30554
        3  |  6:47.30 |  3:06.24 |     30555    |    44528
        4  |  9:53.54 |  3:29.33 |     44529    |    60236
        5  | 13:23.12 |  3:25.49 |     60237    |    75660
        6  | 16:48.61 |  3:30.24 |     75661    |    91434
        7  | 20:19.10 |  2:28.31 |     91435    |   102565
        8  | 22:47.41 |  3:04.37 |    102566    |   116402
        9  | 25:52.03 |  3:54.18 |    116403    |   133970
       10  | 29:46.21 |  3:44.55 |    133971    |   150825
Range status and errors
Selected range
     Filename E:\Music\Rock\The monomes\2011 - Sweet champagne\The monomes - Sweet champagne.wav
     Peak level 99.9 %
     Extraction speed 6.5 X
     Range quality 100.0 %
     Test CRC FA7B53E5
     Copy CRC FA7B53E5
     Copy OK
No errors occurred
AccurateRip summary
Track  1  not present in database
Track  2  not present in database
Track  3  not present in database
Track  4  not present in database
Track  5  not present in database
Track  6  not present in database
Track  7  not present in database
Track  8  not present in database
Track  9  not present in database
Track 10  not present in database
None of the tracks are present in the AccurateRip database
End of status report
==== Log checksum 2F975E0CE448DD286A04BB7BE5322484752649B29E447E293E1B3D59274AD8FD ====
История группы началась в 2005 году, когда Рафаель(барабаны и перкуссия) и Дэвид(гитара) решили создать группу. Двое одноклассников решили назвать группу так же как и группу на выпускном. Это было заявление о намерениях: шаг вперед во взрослую жизнь, независимость и долгожданную свободу.
Через несколько месяцев к ним присоединился Эдди(электро-бас) и начались репетиции. Одноклассники из той же музыкальной школы присоединились к ним и они начали исполнять каверы на Miles Davis, Herbie Hancock, Charlie Parker, Nirvana, the Red Hot Chili Peppers, Green Day, the Beatles и других.
Гитарист, басист и барабанщик продолжали играть на своих концертах в субботу ночью, пока не нашли идеально подходящего вокалиста. Эдвард появился в 2007 году и удачно прошел прослушивание. Основа The Monomes была заложена, и они записали свой первый альбом "Give it an "M" в июле того же года.
2 сингла с их нового альбома ворвались на музыкальную сцену Испании: "Diary of a smoker" и "Your mind is on the run" где их хорошо приняли. Так начались приключения The Monomes и нового стиля рока на сценах Мадрида, Барселоны, Пальма-де-Майорки, Таррагоны и Кастельон. Летом 2009 года они были на открытии El Canto Del Loco на концертах в Малаге и Кордове и в 2010 году они поддержали Hombres G в Алькала-де-Энарес. Чтобы укрепить свою специфическую марку рок-н-ролла, группа включила альт- и тенор-саксофон Пако Маркес на их живых выступлениях.
Они записали свой второй альбом летом 2010 года. К тому времени Клара Коллантес, утвердилась как гитарист второго плана, и была официально приглашена в группу. Её великолепную игру можно услышать в новых произведениях, а также в альбоме "Sweet Champagne".
Спустя пять лет, после первых шагов, группа подтверждает что выбрала верное направление. Лучшим примером этого является альбом "Sweet Champagne". Этот новый этап - следующий профессиональный шаг группы и серьезный вызов для них, чтобы продолжать работу.
Раздаю днем
Правила, инструкции, FAQ!!!
Торрент  Добавлен [26 мар 2019, 18:48] Скачать торрент Магнет ссылка
Скачать торрент
[ Размер 11.49 КБ / Просмотров 3 ]

Статус
Проверен 
 
Размер  265.83 МБ
Приватный: Нет (DHT включён)
.torrent скачан  0
 


     Отправить личное сообщение
   
Страница 1 из 1
Показать сообщения за:  Поле сортировки  
Начать новую тему Ответить на тему


Сейчас этот форум просматривают: нет зарегистрированных пользователей и гости: 0


Вы не можете начинать темы
Вы не можете отвечать на сообщения
Вы не можете редактировать свои сообщения
Вы не можете удалять свои сообщения
Вы не можете добавлять вложения

Перейти:  
cron