Начать новую тему Ответить на тему
Статистика раздачи
Размер: 349.01 МБ | Добавлен: 28 апр 2020, 19:49 | Скачали: 0
Сидеров: 0  [0 байт/сек]    Личеров: 0  [0 байт/сек]
Пред. тема | След. тема 

Автор
Сообщение

СообщениеДобавлено: 28 апр 2020, 19:49 

Ответить с цитатой 

Атлас / Есенни цветя
Жанр: Rock, Pop Rock, New Wave
Носитель: CD
Страна-производитель диска (релиза): Болгария
Год издания: 2004
Издатель (лейбл): "PolySound"
Номер по каталогу: PS 17671252-1
Страна исполнителя (группы): Болгария
Аудиокодек: FLAC (*.flac)
Тип рипа: image+.cue
Продолжительность: 00:42:17
Источник: собственный рип
Наличие сканов в содержимом раздачи: да
Треклист:
01. Капка от любов
02. Най-кратката нощ
03. Един щастлив празен ден
04. Есенни цветя
05. Танцува тя сама
06. Златна приказка
07. Моят свят свършва с теб
08. Пак ли вали в очите ти
09. Лъжливи очи
10. Играта свърши II
11. Снежен сън
Код:
Exact Audio Copy V1.3 from 2. September 2016
Отчёт EAC об извлечении, выполненном 30. ноября 2019, 2:22
Атлас / Есенни цветя
Дисковод: PLEXTOR DVDR   PX-L890SA   Adapter: 1  ID: 0
Режим чтения                 : Достоверность
Использование точного потока : Да
Отключение кэша аудио        : Да
Использование указателей C2  : Нет
Коррекция смещения при чтении                     : 6
Способность читать области Lead-in и Lead-out     : Нет
Заполнение пропущенных сэмплов тишиной            : Да
Удаление блоков с тишиной в начале и конце        : Нет
При вычислениях CRC использовались нулевые сэмплы : Да
Интерфейс                                         : Встроенный Win32-интерфейс для Win NT/2000
Выходной формат          : Пользовательский кодировщик
Выбранный битрейт        : 896 kBit/s
Качество                 : Высокий
Добавление ID3-тега      : Нет
Утилита сжатия           : C:\Program Files\Exact Audio Copy\Flac\flac.exe
Дополнительные параметры : -V -8 -T "Date=%year%" -T "Genre=%genre%" %source%
TOC извлечённого CD
     Трек |   Старт  | Длительность | Начальный сектор | Конечный сектор
    ---------------------------------------------------------------------
       1  |  0:00.00 |    4:15.36   |           0      |      19160
       2  |  4:15.36 |    2:55.55   |       19161      |      32340
       3  |  7:11.16 |    3:40.27   |       32341      |      48867
       4  | 10:51.43 |    3:43.04   |       48868      |      65596
       5  | 14:34.47 |    3:44.41   |       65597      |      82437
       6  | 18:19.13 |    4:30.52   |       82438      |     102739
       7  | 22:49.65 |    3:37.41   |      102740      |     119055
       8  | 26:27.31 |    4:41.30   |      119056      |     140160
       9  | 31:08.61 |    4:09.15   |      140161      |     158850
      10  | 35:18.01 |    4:20.72   |      158851      |     178422
      11  | 39:38.73 |    2:38.67   |      178423      |     190339
Характеристики диапазона извлечения и сообщения об ошибках
Выбранный диапазон
     Имя файла D:\Lossless 2\Атлас - Есенни цветя 2004\Атлас - Есенни цветя.wav
     Пиковый уровень 100.0 %
     Скорость извлечения 7.6 X
     Качество диапазона 100.0 %
     CRC теста CF51FA70
     CRC копии CF51FA70
     Копирование... OK
Ошибок не произошло
Конец отчёта
---- CUETools DB Plugin V2.1.6
[CTDB TOCID: i65GFrOut58dGvQpyb7qd7bGWDc-] found
Submit result: i65GFrOut58dGvQpyb7qd7bGWDc- has been confirmed
Track | CTDB Status
  1   | (2/2) Accurately ripped
  2   | (2/2) Accurately ripped
  3   | (2/2) Accurately ripped
  4   | (2/2) Accurately ripped
  5   | (2/2) Accurately ripped
  6   | (2/2) Accurately ripped
  7   | (2/2) Accurately ripped
  8   | (2/2) Accurately ripped
  9   | (2/2) Accurately ripped
 10   | (2/2) Accurately ripped
 11   | (2/2) Accurately ripped
==== Контрольная сумма отчёта DBBF89573B46389549B3B2A565F9F2CE04B597D288CE154AD5C2C4E027AFCCC0 ====
Код:
REM GENRE Rock
REM DATE 2004
REM DISCID 8509E90B
REM COMMENT "ExactAudioCopy v1.3"
PERFORMER "Атлас"
TITLE "Есенни цветя"
REM COMPOSER ""
FILE "Атлас - Есенни цветя.flac" WAVE
  TRACK 01 AUDIO
    TITLE "Капка от любов"
    PERFORMER "Атлас"
    REM COMPOSER ""
    INDEX 01 00:00:00
  TRACK 02 AUDIO
    TITLE "Най-кратката нощ"
    PERFORMER "Атлас"
    REM COMPOSER ""
    INDEX 01 04:15:36
  TRACK 03 AUDIO
    TITLE "Един щастлив празен ден"
    PERFORMER "Атлас"
    REM COMPOSER ""
    INDEX 01 07:11:16
  TRACK 04 AUDIO
    TITLE "Есенни цветя"
    PERFORMER "Атлас"
    REM COMPOSER ""
    INDEX 01 10:51:43
  TRACK 05 AUDIO
    TITLE "Танцува тя сама"
    PERFORMER "Атлас"
    REM COMPOSER ""
    INDEX 01 14:34:47
  TRACK 06 AUDIO
    TITLE "Златна приказка"
    PERFORMER "Атлас"
    REM COMPOSER ""
    INDEX 01 18:19:13
  TRACK 07 AUDIO
    TITLE "Моят свят свършва с теб"
    PERFORMER "Атлас"
    REM COMPOSER ""
    INDEX 01 22:49:65
  TRACK 08 AUDIO
    TITLE "Пак ли вали в очите ти"
    PERFORMER "Атлас"
    REM COMPOSER ""
    INDEX 01 26:27:31
  TRACK 09 AUDIO
    TITLE "Лъжливи очи"
    PERFORMER "Атлас"
    REM COMPOSER ""
    INDEX 01 31:08:61
  TRACK 10 AUDIO
    TITLE "Играта свърши II"
    PERFORMER "Атлас"
    REM COMPOSER ""
    INDEX 01 35:18:01
  TRACK 11 AUDIO
    TITLE "Снежен сън"
    PERFORMER "Атлас"
    REM COMPOSER ""
    INDEX 01 39:38:73
Код:
[url=https://fastpic.ru/view/111/2020/0327/c63c94783a6b1648e3786bf423e67ece.jpg.html][img]https://i111.fastpic.ru/thumb/2020/0327/ce/c63c94783a6b1648e3786bf423e67ece.jpeg[/img][/url] [url=https://fastpic.ru/view/111/2020/0327/670023e452c0ef402324c8759815d7eb.jpg.html][img]https://i111.fastpic.ru/thumb/2020/0327/eb/670023e452c0ef402324c8759815d7eb.jpeg[/img][/url] [url=https://fastpic.ru/view/111/2020/0327/2c8f5fca1adc66b9a5cae7729c6d811c.jpg.html][img]https://i111.fastpic.ru/thumb/2020/0327/1c/2c8f5fca1adc66b9a5cae7729c6d811c.jpeg[/img][/url] [url=https://fastpic.ru/view/111/2020/0327/8ea9e3e0aa957c3967529e7385759967.jpg.html][img]https://i111.fastpic.ru/thumb/2020/0327/67/8ea9e3e0aa957c3967529e7385759967.jpeg[/img][/url] [url=https://fastpic.ru/view/111/2020/0327/434c8f945e7964084cd67cd6f191b6b5.jpg.html][img]https://i111.fastpic.ru/thumb/2020/0327/b5/434c8f945e7964084cd67cd6f191b6b5.jpeg[/img][/url] [url=https://fastpic.ru/view/111/2020/0327/0c154abb81a75b226f9bab90daac6981.jpg.html][img]https://i111.fastpic.ru/thumb/2020/0327/81/0c154abb81a75b226f9bab90daac6981.jpeg[/img][/url] [url=https://fastpic.ru/view/111/2020/0327/b570046de09aec4f9c889af5994a116e.jpg.html][img]https://i111.fastpic.ru/thumb/2020/0327/6e/b570046de09aec4f9c889af5994a116e.jpeg[/img][/url]
Группа "Атлас" была создана в Софии в 1985 году как трио Питера Писарски , Бойко Трифонова и Сильвии Райновской , которая исполняет музыку кантри. Вскоре после начала к Атласу присоединились Петр Даскалов , Румен Александров и Енил Энчев . Они организовали первый загородный клуб в Софии в Молодежном центре рядом с кинотеатром «Питер Берон», но после трансляции по радио «Свободная Европа» они были вынуждены приостановить встречи.
Летом 1985 года Питер, Бойко и Сильвия Райновска основали группу "Атлас". Они движутся к новой волне в то время. Вскоре к трио присоединились Румен Александров - бас-гитара, Енил Энчев - губная гармоника и Петр Даскалов - ударные инструменты.
В 1988 году Атлас выступил на первом болгарском рок-фестивале. Он проводится в Мичурине под названием: «Мир, замечательные люди». Другие участники в нем включают в себя «Обзор», «Эра», «Ахат», «Мираж», Георгий Минчев и Вили Кавалджиев. Атлас взрывает толпу поклонников, и Балкантон записывает весь концерт и выпускает его на долгоиграющей записи.
В 1993 году "Атлас" порадовал своих поклонников новым альбомом. Полет над собой - включает в себя хиты «Игра окончена», замечательную балладу «Слепая девчонка», «Пурпурная комната», «Пустая ночь» и, конечно же, одноименную песню. Большинство песен на альбоме были написаны Донни, Петром Поповым и Питером Писарским. Использование саксофона в «Пустой ночи» и «Грязных вещах», нежная фортепианная мелодия в «Слепой девочке», более тяжелые рифы на гитаре Пепи Писарски в «Полете над собой», речь - монолог в «Скуке», как и чрезвычайно позитивный Awakening Hero, отличающийся своим вокалом, делает альбом чрезвычайно насыщенным и ярким. В том же году Донни покинул группу и вместе с Момчилом Колевым, клавишником группы "Клас", создал дуэт Дони и Момчил, весьма успешный проект, который просуществовал до 2000 года.
С начала 2014 года Атлас выступал с клубными концертами по всей Болгарии. Группа продолжает работать над новыми песнями. В апреле Божо Тренков и Мартин Стоянов покидают группу. На их место приходят Борислав Борисов - ударные и Асен Драгнев - клавишные инструменты - хорошо известные в группе „Спринт“. "Атлас" запускает музыкальный проект под названием "Прегазени цветя". Это инициатива по борьбе с дорожно-транспортными происшествиями, смертями и травмами в дорожно-транспортных происшествиях. Выходит промо сингла "Прегазени цветя". Песня несет звук старого Атласа - с начала 1990-х, но более свежий и мудрый. Он сохранил свою мелодическую линию - эмоциональную и эффектную. Премьера клипа «Не смотри на меня» также состоялась в том же месяце. Режиссер фильма Игорь Шабов.
Наград:
--- «1 приз» за песню за песню «Спи свой сон» на весеннем радиоконкурсе БНР ( София , 1993).
--- «1 приз» за песню «Она танцует одна» на радиоконкурсе БНР «Золотая весна» ( София , 2003).
--- «1 приз» за песню «Были ли вы» на радиоконкурсе БНР «Золотая весна» ( София , 2010).
--- «2 приз» за песню «Не твой идеальный парень» на радиоконкурсе БНР «Золотая весна» ( София , 2011).
--- «1 приз» за песню «Я люблю дождь над тобой» на радиоконкурсе БНР «Золотая весна» ( София , 2013).
--- «3 приз» за песню «Get Yourself Free» в международном чарте «BEAT 100» (2013).
Песните 1, 3, 4, 5, 8 са записани в SKY студио от Момчил Колев и Искрен Искренов,
Песните 2 и 11 в студио Polysound от Миро,
Песните 9 и 10 в студио 33,
Песните 6 и 7 записани и продуцирани от Key студио. Записите са осъществени през 2002- 2003 г.
В “Капка от любов"- тромпет - Кирил Македонски;
В “Есенни цветя” и “Снежен сън” - цигулка- Искрен Искренов
В “Моят свят свършва с теб”- бас - Младен Несторов-Патето, саксофон- Николай Узунов-Узо.
В “Играта свърши II”- допълнителен вокал- Камелия Георгиева.
Група “Атлас”:
Благовест Зерлиев - осн. вокал;
Пепи Писарски - ел. китара, ак. китари, вокали;
Димитър Митев-Дънди - барабани, перкусии;
Силвия Секулова - клавишни, доп. вокали;
В настоящия състав група “Атлас” е представена от:
Благовест Зерлиев - вокал;
Петър Писарски - китара, вокал;
Симеон Либчев - бас
Милена - клавишни;
Илия Илиев - ударни;
Ники Узунов - саксофон
Правила, инструкции, FAQ!!!
Торрент  Добавлен [28 апр 2020, 19:49] Скачать торрент Магнет ссылка
Скачать торрент
[ Размер 14.61 КБ / Просмотров 8 ]

Статус
Проверен 
 
Размер  349.01 МБ
Приватный: Нет (DHT включён)
.torrent скачан  0
 


     Отправить личное сообщение
   
Страница 1 из 1
Показать сообщения за:  Поле сортировки  
Начать новую тему Ответить на тему


Сейчас этот форум просматривают: нет зарегистрированных пользователей и гости: 0


Вы не можете начинать темы
Вы не можете отвечать на сообщения
Вы не можете редактировать свои сообщения
Вы не можете удалять свои сообщения
Вы не можете добавлять вложения

Перейти:  
cron