Начать новую тему Ответить на тему
Статистика раздачи
Размер: 1.11 ГБ | Добавлен: 26 мар 2019, 21:06 | Скачали: 0
Сидеров: 0  [0 байт/сек]    Личеров: 0  [0 байт/сек]
Пред. тема | След. тема 

Автор
Сообщение

СообщениеДобавлено: 26 мар 2019, 21:06 

Ответить с цитатой 




Itzhak Klepter - Original albums (2010)

Жанр: Rock, Pop-rock
Носитель:CD (compilation, Box Set)
Страна-производитель диска (релиза): Israel
Год издания: 2010
Издатель (лейбл): NMC
Номер по каталогу: 20981-2
Страна исполнителя (группы): Israel
Аудио кодек: FLAC (*.flac)
Тип рипа: (tracks + .cue)
Битрейт аудио: lossless
Наличие сканов в содержимом раздачи: full scans, png, 300 dpi
Продолжительность: 2:41:49
Источник (релизер): Моя коллекция, мой рип
Оригинальное издание: CBS 84905-2
#777Трэклист:
Код:
1 - האהבה שלי היא לא ...
לחן: יצחק קלפטר - מילים: יהונתן גפן
2 - היא עוברת
לחן: יצחק קלפטר - מילים: עלי מוהר
3 - אף אחד כבר לא מתגעגע
לחן: יצחק קלפטר - מילים: הילה רז
4 - אני ואת אז
לחן: יצחק קלפטר - מילים: יצחק קלפטר
5 - נפגשנו
לחן: יצחק קלפטר - מילים: יצחק קלפטר
6 - בוקר
לחן: יצחק קלפטר - מילים: יצחק קלפטר
7 - אחד ובינתיים
לחן: יצחק קלפטר - מילים: יצחק קלפטר
8 - מה היא הדרך
לחן: יצחק קלפטר - מילים: יצחק קלפטר
9 - היא הסכימה
לחן: יצחק קלפטר - מילים: יצחק קלפטר
10 - אצל אברם
לחן: יצחק קלפטר
Код:
Exact Audio Copy V1.3 from 2. September 2016
EAC extraction logfile from 13. January 2017, 8:36
יצחק קלפטר / יצחק
Used drive  : HL-DT-STDVDRAM GH24NSB0   Adapter: 1  ID: 0
Read mode               : Secure
Utilize accurate stream : Yes
Defeat audio cache      : Yes
Make use of C2 pointers : No
Read offset correction                      : 6
Overread into Lead-In and Lead-Out          : No
Fill up missing offset samples with silence : Yes
Delete leading and trailing silent blocks   : No
Null samples used in CRC calculations       : Yes
Used interface                              : Native Win32 interface for Win NT & 2000
Gap handling                                : Appended to previous track
Used output format              : User Defined Encoder
Selected bitrate                : 1024 kBit/s
Quality                         : High
Add ID3 tag                     : No
Command line compressor         : C:\Program Files (x86)\Exact Audio Copy\FLAC\FLAC.EXE
Additional command line options : -V -8 -T "Genre=%genre%" -T "Artist=%artist%" -T "Title=%title%" -T "Album=%albumtitle%" -T "Date=%year%" -T "Tracknumber=%tracknr%" -T "Comment=%comment%" %source%
TOC of the extracted CD
     Track |   Start  |  Length  | Start sector | End sector
    ---------------------------------------------------------
        1  |  0:00.00 |  2:56.56 |         0    |    13255
        2  |  2:56.56 |  3:01.12 |     13256    |    26842
        3  |  5:57.68 |  3:40.23 |     26843    |    43365
        4  |  9:38.16 |  3:53.33 |     43366    |    60873
        5  | 13:31.49 |  3:52.16 |     60874    |    78289
        6  | 17:23.65 |  3:37.22 |     78290    |    94586
        7  | 21:01.12 |  3:40.37 |     94587    |   111123
        8  | 24:41.49 |  3:32.56 |    111124    |   127079
        9  | 28:14.30 |  5:06.18 |    127080    |   150047
       10  | 33:20.48 |  4:02.03 |    150048    |   168200
Track  1
     Filename D:\Musicgate's rips\יצחק קלפטר - האלבומים המקוריים - 2010\יצחק קלפטר - יצחק - 1981\01 - האהבה שלי היא לא האהבה שלו.wav
     Pre-gap length  0:00:02.00
     Peak level 100.0 %
     Extraction speed 1.1 X
     Track quality 100.0 %
     Test CRC 3C17E4BE
     Copy CRC 3C17E4BE
     Accurately ripped (confidence 1)  [9066DD86]  (AR v2)
     Copy OK
Track  2
     Filename D:\Musicgate's rips\יצחק קלפטר - האלבומים המקוריים - 2010\יצחק קלפטר - יצחק - 1981\02 - היא עוברת.wav
     Pre-gap length  0:00:02.00
     Peak level 100.0 %
     Extraction speed 1.2 X
     Track quality 100.0 %
     Test CRC DA6CD130
     Copy CRC DA6CD130
     Accurately ripped (confidence 1)  [001DEA90]  (AR v2)
     Copy OK
Track  3
     Filename D:\Musicgate's rips\יצחק קלפטר - האלבומים המקוריים - 2010\יצחק קלפטר - יצחק - 1981\03 - אף אחד כבר לא מתגעגע.wav
     Pre-gap length  0:00:02.00
     Peak level 100.0 %
     Extraction speed 1.3 X
     Track quality 100.0 %
     Test CRC D6826603
     Copy CRC D6826603
     Accurately ripped (confidence 1)  [F0E5BCB0]  (AR v2)
     Copy OK
Track  4
     Filename D:\Musicgate's rips\יצחק קלפטר - האלבומים המקוריים - 2010\יצחק קלפטר - יצחק - 1981\04 - את אני ואז.wav
     Pre-gap length  0:00:02.00
     Peak level 100.0 %
     Extraction speed 1.4 X
     Track quality 100.0 %
     Test CRC 7C34D12F
     Copy CRC 7C34D12F
     Accurately ripped (confidence 1)  [68866703]  (AR v2)
     Copy OK
Track  5
     Filename D:\Musicgate's rips\יצחק קלפטר - האלבומים המקוריים - 2010\יצחק קלפטר - יצחק - 1981\05 - נפגשנו.wav
     Pre-gap length  0:00:02.00
     Peak level 100.0 %
     Extraction speed 1.5 X
     Track quality 100.0 %
     Test CRC 9C2B8C49
     Copy CRC 9C2B8C49
     Accurately ripped (confidence 1)  [5478FCC0]  (AR v2)
     Copy OK
Track  6
     Filename D:\Musicgate's rips\יצחק קלפטר - האלבומים המקוריים - 2010\יצחק קלפטר - יצחק - 1981\06 - בוקר.wav
     Pre-gap length  0:00:02.00
     Peak level 93.6 %
     Extraction speed 1.6 X
     Track quality 100.0 %
     Test CRC 13833FF7
     Copy CRC 13833FF7
     Accurately ripped (confidence 1)  [AEE613D5]  (AR v2)
     Copy OK
Track  7
     Filename D:\Musicgate's rips\יצחק קלפטר - האלבומים המקוריים - 2010\יצחק קלפטר - יצחק - 1981\07 - אחד ובינתיים.wav
     Pre-gap length  0:00:02.00
     Peak level 100.0 %
     Extraction speed 1.6 X
     Track quality 100.0 %
     Test CRC F85073D0
     Copy CRC F85073D0
     Accurately ripped (confidence 1)  [E1A8A927]  (AR v2)
     Copy OK
Track  8
     Filename D:\Musicgate's rips\יצחק קלפטר - האלבומים המקוריים - 2010\יצחק קלפטר - יצחק - 1981\08 - מה היא הדרך.wav
     Pre-gap length  0:00:02.00
     Peak level 100.0 %
     Extraction speed 1.7 X
     Track quality 100.0 %
     Test CRC 8EEE1AF2
     Copy CRC 8EEE1AF2
     Accurately ripped (confidence 1)  [583ACAB8]  (AR v2)
     Copy OK
Track  9
     Filename D:\Musicgate's rips\יצחק קלפטר - האלבומים המקוריים - 2010\יצחק קלפטר - יצחק - 1981\09 - היא הסכימה.wav
     Pre-gap length  0:00:02.00
     Peak level 94.4 %
     Extraction speed 1.9 X
     Track quality 100.0 %
     Test CRC E8D23C81
     Copy CRC E8D23C81
     Accurately ripped (confidence 1)  [45EE4E30]  (AR v2)
     Copy OK
Track 10
     Filename D:\Musicgate's rips\יצחק קלפטר - האלבומים המקוריים - 2010\יצחק קלפטר - יצחק - 1981\10 - אצל אברם.wav
     Pre-gap length  0:00:02.00
     Peak level 97.7 %
     Extraction speed 1.7 X
     Track quality 99.9 %
     Test CRC 149188CC
     Copy CRC 149188CC
     Accurately ripped (confidence 1)  [2F539FDF]  (AR v2)
     Copy OK
All tracks accurately ripped
No errors occurred
End of status report
==== Log checksum CDE3AE508A184CFDB25CA9D37C83CBC9B6C0B64C71CFF103DA7D20E204812A91 ====
Код:
REM GENRE "Rock Israeli"
REM DATE 1981
REM DISCID 7C08C20A
REM COMMENT "ExactAudioCopy v1.3"
PERFORMER "יצחק קלפטר"
TITLE "יצחק"
REM COMPOSER ""
FILE "01 - האהבה שלי היא לא האהבה שלו.wav" WAVE
  TRACK 01 AUDIO
    TITLE "האהבה שלי היא לא האהבה שלו"
    PERFORMER "יצחק קלפטר"
    REM COMPOSER ""
    FLAGS DCP
    INDEX 01 00:00:00
  TRACK 02 AUDIO
    TITLE "היא עוברת"
    PERFORMER "יצחק קלפטר"
    REM COMPOSER ""
    FLAGS DCP
    INDEX 00 02:54:56
FILE "02 - היא עוברת.wav" WAVE
    INDEX 01 00:00:00
  TRACK 03 AUDIO
    TITLE "אף אחד כבר לא מתגעגע"
    PERFORMER "יצחק קלפטר"
    REM COMPOSER ""
    FLAGS DCP
    INDEX 00 02:59:12
FILE "03 - אף אחד כבר לא מתגעגע.wav" WAVE
    INDEX 01 00:00:00
  TRACK 04 AUDIO
    TITLE "את אני ואז"
    PERFORMER "יצחק קלפטר"
    REM COMPOSER ""
    FLAGS DCP
    INDEX 00 03:38:23
FILE "04 - את אני ואז.wav" WAVE
    INDEX 01 00:00:00
  TRACK 05 AUDIO
    TITLE "נפגשנו"
    PERFORMER "יצחק קלפטר"
    REM COMPOSER ""
    FLAGS DCP
    INDEX 00 03:51:33
FILE "05 - נפגשנו.wav" WAVE
    INDEX 01 00:00:00
  TRACK 06 AUDIO
    TITLE "בוקר"
    PERFORMER "יצחק קלפטר"
    REM COMPOSER ""
    FLAGS DCP
    INDEX 00 03:50:16
FILE "06 - בוקר.wav" WAVE
    INDEX 01 00:00:00
  TRACK 07 AUDIO
    TITLE "אחד ובינתיים"
    PERFORMER "יצחק קלפטר"
    REM COMPOSER ""
    FLAGS DCP
    INDEX 00 03:35:22
FILE "07 - אחד ובינתיים.wav" WAVE
    INDEX 01 00:00:00
  TRACK 08 AUDIO
    TITLE "מה היא הדרך"
    PERFORMER "יצחק קלפטר"
    REM COMPOSER ""
    FLAGS DCP
    INDEX 00 03:38:37
FILE "08 - מה היא הדרך.wav" WAVE
    INDEX 01 00:00:00
  TRACK 09 AUDIO
    TITLE "היא הסכימה"
    PERFORMER "יצחק קלפטר"
    REM COMPOSER ""
    FLAGS DCP
    INDEX 00 03:30:56
FILE "09 - היא הסכימה.wav" WAVE
    INDEX 01 00:00:00
  TRACK 10 AUDIO
    TITLE "אצל אברם"
    PERFORMER "יצחק קלפטר"
    REM COMPOSER ""
    FLAGS DCP
    INDEX 00 05:04:18
FILE "10 - אצל אברם.wav" WAVE
    INDEX 01 00:00:00

Код:
יצחק קלפטר [Itzhak Klepter] - גיטרה חשמלית ואקוסטית , מלחין
מאיר ישראל [Meir Israel] - תופים ,כלי הקשה
ירוסלב יעקובוביץ [Jaroslav Jakubovitz] - סקסופון ,סטרינגס , מפיק מוסיקלי
ורד קלפטר [Vered Klepter] - קולות רקע
אלונה טוראל [Alona Tur'el] - פסנתר חשמלי ואקוסטי ,סטרינגס
איתן גדרון [Eitan Gidron] - גיטרה בס
דפנה ארמוני [Dafna Armoni] - קולות רקע
מזי כהן- קולות רקע

Оригинальное издание: NMC 25464-2
#777Трэклист:
Код:
1 - כוכבים הם רק טיפות ...
לחן: יצחק קלפטר - מילים: יצחק קלפטר
2 - העדים שלי
לחן: יצחק קלפטר - מילים: יצחק קלפטר
3 - סליחה חבר
לחן: יצחק קלפטר - מילים: יצחק קלפטר
4 - טיול בתל אביב
לחן: יצחק קלפטר - מילים: יצחק קלפטר
5 - הלכת מימני
לחן: יצחק קלפטר - מילים: יצחק קלפטר
6 - בואי שמש
לחן: יצחק קלפטר - מילים: יצחק קלפטר
7 - בואי לרקוד
לחן: יצחק קלפטר - מילים: יצחק קלפטר
8 - חופש אהבה והבנה
לחן: יצחק קלפטר - מילים: יצחק קלפטר
9 - במעלית
לחן: יצחק קלפטר - מילים: יצחק קלפטר
Код:
Exact Audio Copy V1.3 from 2. September 2016
EAC extraction logfile from 12. January 2017, 16:11
יצחק קלפטר / לבד
Used drive  : HL-DT-STDVDRAM GH24NSB0   Adapter: 1  ID: 0
Read mode               : Secure
Utilize accurate stream : Yes
Defeat audio cache      : Yes
Make use of C2 pointers : No
Read offset correction                      : 6
Overread into Lead-In and Lead-Out          : No
Fill up missing offset samples with silence : Yes
Delete leading and trailing silent blocks   : No
Null samples used in CRC calculations       : Yes
Used interface                              : Native Win32 interface for Win NT & 2000
Gap handling                                : Appended to previous track
Used output format              : User Defined Encoder
Selected bitrate                : 1024 kBit/s
Quality                         : High
Add ID3 tag                     : No
Command line compressor         : C:\Program Files (x86)\Exact Audio Copy\FLAC\FLAC.EXE
Additional command line options : -V -8 -T "Genre=%genre%" -T "Artist=%artist%" -T "Title=%title%" -T "Album=%albumtitle%" -T "Date=%year%" -T "Tracknumber=%tracknr%" -T "Comment=%comment%" %source%
TOC of the extracted CD
     Track |   Start  |  Length  | Start sector | End sector
    ---------------------------------------------------------
        1  |  0:00.00 |  5:16.53 |         0    |    23752
        2  |  5:16.53 |  3:15.57 |     23753    |    38434
        3  |  8:32.35 |  3:38.74 |     38435    |    54858
        4  | 12:11.34 |  4:27.14 |     54859    |    74897
        5  | 16:38.48 |  4:09.23 |     74898    |    93595
        6  | 20:47.71 |  4:20.11 |     93596    |   113106
        7  | 25:08.07 |  3:32.48 |    113107    |   129054
        8  | 28:40.55 |  4:14.54 |    129055    |   148158
        9  | 32:55.34 |  4:25.49 |    148159    |   168082
Track  1
     Filename D:\Musicgate's rips\יצחק קלפטר - האלבומים המקוריים - 2010\יצחק קלפטר - לבד - 1984\01 - כוכבים הם רק טיפות בחושך.wav
     Pre-gap length  0:00:02.00
     Peak level 100.0 %
     Extraction speed 1.1 X
     Track quality 99.9 %
     Test CRC 475F9E22
     Copy CRC 475F9E22
     Accurately ripped (confidence 2)  [CD8D8E4A]  (AR v2)
     Copy OK
Track  2
     Filename D:\Musicgate's rips\יצחק קלפטר - האלבומים המקוריים - 2010\יצחק קלפטר - לבד - 1984\02 - העדים שלי.wav
     Pre-gap length  0:00:02.74
     Peak level 100.0 %
     Extraction speed 1.2 X
     Track quality 100.0 %
     Test CRC D781426D
     Copy CRC D781426D
     Accurately ripped (confidence 2)  [CD541ED3]  (AR v2)
     Copy OK
Track  3
     Filename D:\Musicgate's rips\יצחק קלפטר - האלבומים המקוריים - 2010\יצחק קלפטר - לבד - 1984\03 - סליחה חבר.wav
     Pre-gap length  0:00:02.14
     Peak level 100.0 %
     Extraction speed 1.4 X
     Track quality 100.0 %
     Test CRC F8893D15
     Copy CRC F8893D15
     Accurately ripped (confidence 2)  [E76B2534]  (AR v2)
     Copy OK
Track  4
     Filename D:\Musicgate's rips\יצחק קלפטר - האלבומים המקוריים - 2010\יצחק קלפטר - לבד - 1984\04 - טיול בתל אביב - אינסטרומנטלי.wav
     Peak level 100.0 %
     Extraction speed 1.5 X
     Track quality 100.0 %
     Test CRC BB96849C
     Copy CRC BB96849C
     Accurately ripped (confidence 2)  [F439FDF5]  (AR v2)
     Copy OK
Track  5
     Filename D:\Musicgate's rips\יצחק קלפטר - האלבומים המקוריים - 2010\יצחק קלפטר - לבד - 1984\05 - הלכת ממני.wav
     Pre-gap length  0:00:03.11
     Peak level 100.0 %
     Extraction speed 1.4 X
     Track quality 99.9 %
     Test CRC 80975C1B
     Copy CRC 80975C1B
     Accurately ripped (confidence 2)  [F5783817]  (AR v2)
     Copy OK
Track  6
     Filename D:\Musicgate's rips\יצחק קלפטר - האלבומים המקוריים - 2010\יצחק קלפטר - לבד - 1984\06 - בואי שמש.wav
     Pre-gap length  0:00:02.56
     Peak level 100.0 %
     Extraction speed 1.6 X
     Track quality 100.0 %
     Test CRC D407E882
     Copy CRC D407E882
     Accurately ripped (confidence 2)  [DC2D6C09]  (AR v2)
     Copy OK
Track  7
     Filename D:\Musicgate's rips\יצחק קלפטר - האלבומים המקוריים - 2010\יצחק קלפטר - לבד - 1984\07 - בואי לרקוד.wav
     Pre-gap length  0:00:01.25
     Peak level 100.0 %
     Extraction speed 1.7 X
     Track quality 100.0 %
     Test CRC 539E577D
     Copy CRC 539E577D
     Accurately ripped (confidence 2)  [D0CB26D1]  (AR v2)
     Copy OK
Track  8
     Filename D:\Musicgate's rips\יצחק קלפטר - האלבומים המקוריים - 2010\יצחק קלפטר - לבד - 1984\08 - חופש, אהבה והבנה.wav
     Peak level 100.0 %
     Extraction speed 1.8 X
     Track quality 100.0 %
     Test CRC 49FFA3D1
     Copy CRC 49FFA3D1
     Accurately ripped (confidence 2)  [52AD414E]  (AR v2)
     Copy OK
Track  9
     Filename D:\Musicgate's rips\יצחק קלפטר - האלבומים המקוריים - 2010\יצחק קלפטר - לבד - 1984\09 - במעלית - אינסטרומנטלי.wav
     Pre-gap length  0:00:01.28
     Peak level 100.0 %
     Extraction speed 1.9 X
     Track quality 100.0 %
     Test CRC 384DEDB8
     Copy CRC 384DEDB8
     Accurately ripped (confidence 2)  [973F3A25]  (AR v2)
     Copy OK
All tracks accurately ripped
No errors occurred
End of status report
==== Log checksum 83FE66B7FADA9196A923DDDC069E7D281710F4870F56039B30FC89BA57937F6C ====
Код:
REM GENRE "Rock Israeli"
REM DATE 2010
REM DISCID 6108C109
REM COMMENT "ExactAudioCopy v1.3"
PERFORMER "יצחק קלפטר"
TITLE "לבד"
REM COMPOSER ""
FILE "01 - כוכבים הם רק טיפות בחושך.wav" WAVE
  TRACK 01 AUDIO
    TITLE "כוכבים הם רק טיפות בחושך"
    PERFORMER "יצחק קלפטר"
    REM COMPOSER ""
    INDEX 01 00:00:00
  TRACK 02 AUDIO
    TITLE "העדים שלי"
    PERFORMER "יצחק קלפטר"
    REM COMPOSER ""
    INDEX 00 05:13:54
FILE "02 - העדים שלי.wav" WAVE
    INDEX 01 00:00:00
  TRACK 03 AUDIO
    TITLE "סליחה חבר"
    PERFORMER "יצחק קלפטר"
    REM COMPOSER ""
    INDEX 00 03:13:43
FILE "03 - סליחה חבר.wav" WAVE
    INDEX 01 00:00:00
FILE "04 - טיול בתל אביב - אינסטרומנטלי.wav" WAVE
  TRACK 04 AUDIO
    TITLE "טיול בתל אביב - אינסטרומנטלי"
    PERFORMER "יצחק קלפטר"
    REM COMPOSER ""
    INDEX 01 00:00:00
  TRACK 05 AUDIO
    TITLE "הלכת ממני"
    PERFORMER "יצחק קלפטר"
    REM COMPOSER ""
    INDEX 00 04:24:03
FILE "05 - הלכת ממני.wav" WAVE
    INDEX 01 00:00:00
  TRACK 06 AUDIO
    TITLE "בואי שמש"
    PERFORMER "יצחק קלפטר"
    REM COMPOSER ""
    INDEX 00 04:06:42
FILE "06 - בואי שמש.wav" WAVE
    INDEX 01 00:00:00
  TRACK 07 AUDIO
    TITLE "בואי לרקוד"
    PERFORMER "יצחק קלפטר"
    REM COMPOSER ""
    INDEX 00 04:18:61
FILE "07 - בואי לרקוד.wav" WAVE
    INDEX 01 00:00:00
FILE "08 - חופש, אהבה והבנה.wav" WAVE
  TRACK 08 AUDIO
    TITLE "חופש, אהבה והבנה"
    PERFORMER "יצחק קלפטר"
    REM COMPOSER ""
    INDEX 01 00:00:00
  TRACK 09 AUDIO
    TITLE "במעלית - אינסטרומנטלי"
    PERFORMER "יצחק קלפטר"
    REM COMPOSER ""
    INDEX 00 04:13:26
FILE "09 - במעלית - אינסטרומנטלי.wav" WAVE
    INDEX 01 00:00:00

Код:
יצחק קלפטר [Itzhak Klepter] - זמר , גיטרות , כותב מילים , מלחין , מעבד , מפיק מוסיקלי
ירוסלב יעקובוביץ [Jaroslav Jakubovitz] - סקסופונים
אלון הלל [Alon Halal] - תופים כלי הקשה
אלונה טוראל [Alona Tur'el] - פסנתר סינטיסייזר , מעבדת
איתן גדרון [Eitan Gidron] - גיטרה בס

Оригинальное издание: NMC 462478-2
#777Трэклист:
Код:
1 - דמיון חופשי
לחן: יצחק קלפטר - מילים: יצחק קלפטר
2 - מחזיק מעמד
לחן: יצחק קלפטר - מילים: יצחק קלפטר
3 - ער בחלום
לחן: יצחק קלפטר - מילים: יצחק קלפטר
4 - כוכב שלי
לחן: יצחק קלפטר - מילים: יצחק קלפטר
5 - הקשר בנינו חזק
לחן: יצחק קלפטר - מילים: יצחק קלפטר
6 - חופשיה
לחן: יצחק קלפטר - מילים: יצחק קלפטר
7 - מתיאש לאט
לחן: יצחק קלפטר - מילים: יצחק קלפטר
8 - כמו השחף
לחן: יצחק קלפטר - מילים: יצחק קלפטר
9 - נוהג במכונית
לחן: יצחק קלפטר - מילים: יצחק קלפטר
10 - שני בערב
לחן: יצחק קלפטר - מילים: יצחק קלפטר
Код:
Exact Audio Copy V1.3 from 2. September 2016
EAC extraction logfile from 14. January 2017, 6:12
יצחק קלפטר / מחזיק מעמד
Used drive  : HL-DT-STDVDRAM GH24NSB0   Adapter: 1  ID: 0
Read mode               : Secure
Utilize accurate stream : Yes
Defeat audio cache      : Yes
Make use of C2 pointers : No
Read offset correction                      : 6
Overread into Lead-In and Lead-Out          : No
Fill up missing offset samples with silence : Yes
Delete leading and trailing silent blocks   : No
Null samples used in CRC calculations       : Yes
Used interface                              : Native Win32 interface for Win NT & 2000
Gap handling                                : Appended to previous track
Used output format              : User Defined Encoder
Selected bitrate                : 1024 kBit/s
Quality                         : High
Add ID3 tag                     : No
Command line compressor         : C:\Program Files (x86)\Exact Audio Copy\FLAC\FLAC.EXE
Additional command line options : -V -8 -T "Genre=%genre%" -T "Artist=%artist%" -T "Title=%title%" -T "Album=%albumtitle%" -T "Date=%year%" -T "Tracknumber=%tracknr%" -T "Comment=%comment%" %source%
TOC of the extracted CD
     Track |   Start  |  Length  | Start sector | End sector
    ---------------------------------------------------------
        1  |  0:00.00 |  4:30.50 |         0    |    20299
        2  |  4:30.50 |  3:38.07 |     20300    |    36656
        3  |  8:08.57 |  4:25.36 |     36657    |    56567
        4  | 12:34.18 |  4:52.19 |     56568    |    78486
        5  | 17:26.37 |  3:59.28 |     78487    |    96439
        6  | 21:25.65 |  4:19.22 |     96440    |   115886
        7  | 25:45.12 |  3:39.29 |    115887    |   132340
        8  | 29:24.41 |  3:15.13 |    132341    |   146978
        9  | 32:39.54 |  4:25.60 |    146979    |   166913
       10  | 37:05.39 |  4:36.12 |    166914    |   187625
Track  1
     Filename D:\Musicgate's rips\יצחק קלפטר - האלבומים המקוריים - 2010\יצחק קלפטר - מחזיק מעמד - 1988\01 - דמיון חופשי.wav
     Pre-gap length  0:00:02.00
     Peak level 88.1 %
     Extraction speed 1.2 X
     Track quality 100.0 %
     Test CRC DA61DAFC
     Copy CRC DA61DAFC
     Accurately ripped (confidence 2)  [3861BBB7]  (AR v2)
     Copy OK
Track  2
     Filename D:\Musicgate's rips\יצחק קלפטר - האלבומים המקוריים - 2010\יצחק קלפטר - מחזיק מעמד - 1988\02 - מחזיק מעמד.wav
     Pre-gap length  0:00:02.00
     Peak level 91.2 %
     Extraction speed 1.1 X
     Track quality 99.9 %
     Test CRC 7869AA0E
     Copy CRC 7869AA0E
     Accurately ripped (confidence 2)  [F82F738F]  (AR v2)
     Copy OK
Track  3
     Filename D:\Musicgate's rips\יצחק קלפטר - האלבומים המקוריים - 2010\יצחק קלפטר - מחזיק מעמד - 1988\03 - ער בחלום.wav
     Pre-gap length  0:00:02.00
     Peak level 85.1 %
     Extraction speed 1.4 X
     Track quality 100.0 %
     Test CRC 41FE107A
     Copy CRC 41FE107A
     Accurately ripped (confidence 2)  [AF237B79]  (AR v2)
     Copy OK
Track  4
     Filename D:\Musicgate's rips\יצחק קלפטר - האלבומים המקוריים - 2010\יצחק קלפטר - מחזיק מעמד - 1988\04 - כוכב שלי.wav
     Pre-gap length  0:00:02.00
     Peak level 80.3 %
     Extraction speed 1.5 X
     Track quality 100.0 %
     Test CRC 0C926B4E
     Copy CRC 0C926B4E
     Accurately ripped (confidence 2)  [842C2E35]  (AR v2)
     Copy OK
Track  5
     Filename D:\Musicgate's rips\יצחק קלפטר - האלבומים המקוריים - 2010\יצחק קלפטר - מחזיק מעמד - 1988\05 - הקשר בנינו חזק.wav
     Pre-gap length  0:00:02.00
     Peak level 84.1 %
     Extraction speed 1.4 X
     Track quality 99.9 %
     Test CRC 5CA93FA3
     Copy CRC 5CA93FA3
     Accurately ripped (confidence 2)  [1B11140A]  (AR v2)
     Copy OK
Track  6
     Filename D:\Musicgate's rips\יצחק קלפטר - האלבומים המקוריים - 2010\יצחק קלפטר - מחזיק מעמד - 1988\06 - חופשיה.wav
     Pre-gap length  0:00:02.00
     Peak level 88.1 %
     Extraction speed 1.5 X
     Track quality 99.9 %
     Test CRC EC43189B
     Copy CRC EC43189B
     Accurately ripped (confidence 2)  [374477C7]  (AR v2)
     Copy OK
Track  7
     Filename D:\Musicgate's rips\יצחק קלפטר - האלבומים המקוריים - 2010\יצחק קלפטר - מחזיק מעמד - 1988\07 - מתייאש לאט.wav
     Pre-gap length  0:00:02.00
     Peak level 89.1 %
     Extraction speed 1.7 X
     Track quality 100.0 %
     Test CRC 029920AA
     Copy CRC 029920AA
     Accurately ripped (confidence 2)  [D7CDA567]  (AR v2)
     Copy OK
Track  8
     Filename D:\Musicgate's rips\יצחק קלפטר - האלבומים המקוריים - 2010\יצחק קלפטר - מחזיק מעמד - 1988\08 - כמו השחף.wav
     Pre-gap length  0:00:02.00
     Peak level 81.2 %
     Extraction speed 1.5 X
     Track quality 99.9 %
     Test CRC FFF3D33F
     Copy CRC FFF3D33F
     Accurately ripped (confidence 2)  [EC853D37]  (AR v2)
     Copy OK
Track  9
     Filename D:\Musicgate's rips\יצחק קלפטר - האלבומים המקוריים - 2010\יצחק קלפטר - מחזיק מעמד - 1988\09 - נוהג במכונית.wav
     Pre-gap length  0:00:02.00
     Peak level 91.2 %
     Extraction speed 1.9 X
     Track quality 100.0 %
     Test CRC 00296053
     Copy CRC 00296053
     Accurately ripped (confidence 2)  [C66809B3]  (AR v2)
     Copy OK
Track 10
     Filename D:\Musicgate's rips\יצחק קלפטר - האלבומים המקוריים - 2010\יצחק קלפטר - מחזיק מעמד - 1988\10 - שני בערב.wav
     Pre-gap length  0:00:02.00
     Peak level 98.8 %
     Extraction speed 2.0 X
     Track quality 100.0 %
     Test CRC 36C9940E
     Copy CRC 36C9940E
     Accurately ripped (confidence 2)  [BCAB02FE]  (AR v2)
     Copy OK
All tracks accurately ripped
No errors occurred
End of status report
==== Log checksum 41DE764A9F413A85C3CBAAE35C399BF33F8A7FBDD0ACC927BAB7F3C39E280255 ====
Код:
REM GENRE Rock
REM DATE 2010
REM DISCID 8E09C50A
REM COMMENT "ExactAudioCopy v1.3"
PERFORMER "יצחק קלפטר"
TITLE "מחזיק מעמד"
REM COMPOSER ""
FILE "01 - דמיון חופשי.wav" WAVE
  TRACK 01 AUDIO
    TITLE "דמיון חופשי"
    PERFORMER "יצחק קלפטר"
    REM COMPOSER ""
    FLAGS DCP
    INDEX 01 00:00:00
  TRACK 02 AUDIO
    TITLE "מחזיק מעמד"
    PERFORMER "יצחק קלפטר"
    REM COMPOSER ""
    FLAGS DCP
    INDEX 00 04:28:50
FILE "02 - מחזיק מעמד.wav" WAVE
    INDEX 01 00:00:00
  TRACK 03 AUDIO
    TITLE "ער בחלום"
    PERFORMER "יצחק קלפטר"
    REM COMPOSER ""
    FLAGS DCP
    INDEX 00 03:36:07
FILE "03 - ער בחלום.wav" WAVE
    INDEX 01 00:00:00
  TRACK 04 AUDIO
    TITLE "כוכב שלי"
    PERFORMER "יצחק קלפטר"
    REM COMPOSER ""
    FLAGS DCP
    INDEX 00 04:23:36
FILE "04 - כוכב שלי.wav" WAVE
    INDEX 01 00:00:00
  TRACK 05 AUDIO
    TITLE "הקשר בנינו חזק"
    PERFORMER "יצחק קלפטר"
    REM COMPOSER ""
    FLAGS DCP
    INDEX 00 04:50:19
FILE "05 - הקשר בנינו חזק.wav" WAVE
    INDEX 01 00:00:00
  TRACK 06 AUDIO
    TITLE "חופשיה"
    PERFORMER "יצחק קלפטר"
    REM COMPOSER ""
    FLAGS DCP
    INDEX 00 03:57:28
FILE "06 - חופשיה.wav" WAVE
    INDEX 01 00:00:00
  TRACK 07 AUDIO
    TITLE "מתייאש לאט"
    PERFORMER "יצחק קלפטר"
    REM COMPOSER ""
    FLAGS DCP
    INDEX 00 04:17:22
FILE "07 - מתייאש לאט.wav" WAVE
    INDEX 01 00:00:00
  TRACK 08 AUDIO
    TITLE "כמו השחף"
    PERFORMER "יצחק קלפטר"
    REM COMPOSER ""
    FLAGS DCP
    INDEX 00 03:37:29
FILE "08 - כמו השחף.wav" WAVE
    INDEX 01 00:00:00
  TRACK 09 AUDIO
    TITLE "נוהג במכונית"
    PERFORMER "יצחק קלפטר"
    REM COMPOSER ""
    FLAGS DCP
    INDEX 00 03:13:13
FILE "09 - נוהג במכונית.wav" WAVE
    INDEX 01 00:00:00
  TRACK 10 AUDIO
    TITLE "שני בערב"
    PERFORMER "יצחק קלפטר"
    REM COMPOSER ""
    FLAGS DCP
    INDEX 00 04:23:60
FILE "10 - שני בערב.wav" WAVE
    INDEX 01 00:00:00

Код:
יצחק קלפטר [Itzhak Klepter] - גיטרות , כותב מילים , מלחין , מפיק מוסיקלי , קולות רקע
מאיר ישראל [Meir Israel] - תופים וכלי הקשה
אלונה טוראל [Alona Tur'el] - קלידים

Оригинальное издание: Hed Arzi 1552-2
#777Трэклист:
Код:
1 - פתיחה
לחן: יצחק קלפטר - מילים: יצחק קלפטר
2 - הרחובות ההם
לחן: יצחק קלפטר - מילים: יצחק קלפטר
3 - כנף קטנה
לחן: ג'ימי הנדריקס - מילים: ג'ימי הנדריקס
4 - ריגושים
לחן: יצחק קלפטר - מילים: יצחק קלפטר
5 - אחד את השני
לחן: יצחק קלפטר - מילים: יצחק קלפטר
6 - שבר ענן
לחן: יצחק קלפטר - מילים: יצחק קלפטר
7 - מותק אל תיבכי
לחן: יצחק קלפטר - מילים: יצחק קלפטר
8 - צייד בודד
לחן: יצחק קלפטר - מילים: יצחק קלפטר
9 - דרך חזרה
לחן: יצחק קלפטר - מילים: יצחק קלפטר
10 - חלון לעולם אחר
לחן: יצחק קלפטר - מילים: יצחק קלפטר
11 - הולך מתרחק
לחן: קית' ריצ'רדס - מילים: מיק ג'אגר
12 - אפילוג
לחן: יצחק קלפטר - מילים: יצחק קלפטר
Код:
Exact Audio Copy V1.3 from 2. September 2016
EAC extraction logfile from 12. January 2017, 9:50
יצחק קלפטר / הרחובות ההם
Used drive  : HL-DT-STDVDRAM GH24NSB0   Adapter: 1  ID: 0
Read mode               : Secure
Utilize accurate stream : Yes
Defeat audio cache      : Yes
Make use of C2 pointers : No
Read offset correction                      : 6
Overread into Lead-In and Lead-Out          : No
Fill up missing offset samples with silence : Yes
Delete leading and trailing silent blocks   : No
Null samples used in CRC calculations       : Yes
Used interface                              : Native Win32 interface for Win NT & 2000
Gap handling                                : Appended to previous track
Used output format              : User Defined Encoder
Selected bitrate                : 1024 kBit/s
Quality                         : High
Add ID3 tag                     : No
Command line compressor         : C:\Program Files (x86)\Exact Audio Copy\FLAC\FLAC.EXE
Additional command line options : -V -8 -T "Genre=%genre%" -T "Artist=%artist%" -T "Title=%title%" -T "Album=%albumtitle%" -T "Date=%year%" -T "Tracknumber=%tracknr%" -T "Comment=%comment%" %source%
TOC of the extracted CD
     Track |   Start  |  Length  | Start sector | End sector
    ---------------------------------------------------------
        1  |  0:00.32 |  1:07.23 |        32    |     5079
        2  |  1:07.55 |  4:20.20 |      5080    |    24599
        3  |  5:28.00 |  2:48.60 |     24600    |    37259
        4  |  8:16.60 |  5:00.32 |     37260    |    59791
        5  | 13:17.17 |  5:50.60 |     59792    |    86101
        6  | 19:08.02 |  3:47.08 |     86102    |   103134
        7  | 22:55.10 |  3:37.00 |    103135    |   119409
        8  | 26:32.10 |  3:45.15 |    119410    |   136299
        9  | 30:17.25 |  4:34.57 |    136300    |   156906
       10  | 34:52.07 |  3:23.33 |    156907    |   172164
       11  | 38:15.40 |  4:48.32 |    172165    |   193796
       12  | 43:03.72 |  2:20.50 |    193797    |   204346
Track  1
     Filename D:\Musicgate's rips\יצחק קלפטר - האלבומים המקוריים - 2010\יצחק קלפטר - הרחובות ההם - 1993\01 - פתיחה.wav
     Pre-gap length  0:00:02.32
     Peak level 81.1 %
     Extraction speed 0.8 X
     Track quality 100.0 %
     Test CRC 28B3B0DA
     Copy CRC 28B3B0DA
     Accurately ripped (confidence 2)  [71C81938]  (AR v2)
     Copy OK
Track  2
     Filename D:\Musicgate's rips\יצחק קלפטר - האלבומים המקוריים - 2010\יצחק קלפטר - הרחובות ההם - 1993\02 - הרחובות ההם.wav
     Peak level 100.0 %
     Extraction speed 1.1 X
     Track quality 99.9 %
     Test CRC 73AB1DA3
     Copy CRC 73AB1DA3
     Accurately ripped (confidence 2)  [37F7CBE2]  (AR v2)
     Copy OK
Track  3
     Filename D:\Musicgate's rips\יצחק קלפטר - האלבומים המקוריים - 2010\יצחק קלפטר - הרחובות ההם - 1993\03 - כנף קטנה.wav
     Pre-gap length  0:00:01.43
     Peak level 100.0 %
     Extraction speed 1.2 X
     Track quality 100.0 %
     Test CRC 1F3F3890
     Copy CRC 1F3F3890
     Accurately ripped (confidence 2)  [9B43297A]  (AR v2)
     Copy OK
Track  4
     Filename D:\Musicgate's rips\יצחק קלפטר - האלבומים המקוריים - 2010\יצחק קלפטר - הרחובות ההם - 1993\04 - ריגושים.wav
     Pre-gap length  0:00:01.05
     Peak level 98.8 %
     Extraction speed 1.3 X
     Track quality 99.9 %
     Test CRC 06CF08FB
     Copy CRC 06CF08FB
     Accurately ripped (confidence 2)  [13B56EF6]  (AR v2)
     Copy OK
Track  5
     Filename D:\Musicgate's rips\יצחק קלפטר - האלבומים המקוריים - 2010\יצחק קלפטר - הרחובות ההם - 1993\05 - אחד את השני.wav
     Pre-gap length  0:00:00.42
     Peak level 100.0 %
     Extraction speed 1.6 X
     Track quality 100.0 %
     Test CRC C0E375E1
     Copy CRC C0E375E1
     Accurately ripped (confidence 2)  [1C9C9849]  (AR v2)
     Copy OK
Track  6
     Filename D:\Musicgate's rips\יצחק קלפטר - האלבומים המקוריים - 2010\יצחק קלפטר - הרחובות ההם - 1993\06 - שבר ענן.wav
     Pre-gap length  0:00:01.67
     Peak level 94.4 %
     Extraction speed 1.6 X
     Track quality 100.0 %
     Test CRC E2B0D967
     Copy CRC E2B0D967
     Accurately ripped (confidence 2)  [A8A205E3]  (AR v2)
     Copy OK
Track  7
     Filename D:\Musicgate's rips\יצחק קלפטר - האלבומים המקוריים - 2010\יצחק קלפטר - הרחובות ההם - 1993\07 - מותק אל תיבכי.wav
     Pre-gap length  0:00:01.45
     Peak level 100.0 %
     Extraction speed 1.6 X
     Track quality 100.0 %
     Test CRC FB085762
     Copy CRC FB085762
     Accurately ripped (confidence 2)  [11DD8E61]  (AR v2)
     Copy OK
Track  8
     Filename D:\Musicgate's rips\יצחק קלפטר - האלבומים המקוריים - 2010\יצחק קלפטר - הרחובות ההם - 1993\08 - צייד בודד.wav
     Peak level 100.0 %
     Extraction speed 1.8 X
     Track quality 100.0 %
     Test CRC D6FB1787
     Copy CRC D6FB1787
     Accurately ripped (confidence 2)  [E41602B1]  (AR v2)
     Copy OK
Track  9
     Filename D:\Musicgate's rips\יצחק קלפטר - האלבומים המקוריים - 2010\יצחק קלפטר - הרחובות ההם - 1993\09 - דרך חזרה.wav
     Pre-gap length  0:00:01.70
     Peak level 91.2 %
     Extraction speed 1.8 X
     Track quality 100.0 %
     Test CRC 5639C1E2
     Copy CRC 5639C1E2
     Accurately ripped (confidence 2)  [FA8C99DD]  (AR v2)
     Copy OK
Track 10
     Filename D:\Musicgate's rips\יצחק קלפטר - האלבומים המקוריים - 2010\יצחק קלפטר - הרחובות ההם - 1993\10 - חלון לעולם אחר.wav
     Pre-gap length  0:00:01.67
     Peak level 91.2 %
     Extraction speed 1.8 X
     Track quality 100.0 %
     Test CRC D92E2EC0
     Copy CRC D92E2EC0
     Accurately ripped (confidence 2)  [4E99CBAC]  (AR v2)
     Copy OK
Track 11
     Filename D:\Musicgate's rips\יצחק קלפטר - האלבומים המקוריים - 2010\יצחק קלפטר - הרחובות ההם - 1993\11 - הולך מתרחק.wav
     Pre-gap length  0:00:02.18
     Peak level 91.2 %
     Extraction speed 2.0 X
     Track quality 100.0 %
     Test CRC C1E9059F
     Copy CRC C1E9059F
     Accurately ripped (confidence 2)  [29240A28]  (AR v2)
     Copy OK
Track 12
     Filename D:\Musicgate's rips\יצחק קלפטר - האלבומים המקוריים - 2010\יצחק קלפטר - הרחובות ההם - 1993\12 - אפילוג.wav
     Pre-gap length  0:00:02.30
     Peak level 91.2 %
     Extraction speed 1.8 X
     Track quality 100.0 %
     Test CRC FF1076A2
     Copy CRC FF1076A2
     Accurately ripped (confidence 1)  [E514AD0F]  (AR v2)
     Copy OK
All tracks accurately ripped
No errors occurred
End of status report
==== Log checksum 28BE39CAC4586C0FE9808CADD7604E396E80C770C94103FCC8E7E58C0F1A3D44 ====
Код:
REM GENRE "Rock Israeli"
REM DATE 2010
REM DISCID BB0AA40C
REM COMMENT "ExactAudioCopy v1.3"
PERFORMER ""
TITLE "הרחובות ההם"
REM COMPOSER ""
FILE "01 - פתיחה.wav" WAVE
  TRACK 01 AUDIO
    TITLE "פתיחה"
    PERFORMER ""
    REM COMPOSER ""
    PREGAP 00:00:32
    INDEX 01 00:00:00
FILE "02 - הרחובות ההם.wav" WAVE
  TRACK 02 AUDIO
    TITLE "הרחובות ההם"
    PERFORMER ""
    REM COMPOSER ""
    INDEX 01 00:00:00
  TRACK 03 AUDIO
    TITLE "כנף קטנה"
    PERFORMER ""
    REM COMPOSER ""
    INDEX 00 04:18:52
FILE "03 - כנף קטנה.wav" WAVE
    INDEX 01 00:00:00
  TRACK 04 AUDIO
    TITLE "ריגושים"
    PERFORMER ""
    REM COMPOSER ""
    INDEX 00 02:47:55
FILE "04 - ריגושים.wav" WAVE
    INDEX 01 00:00:00
  TRACK 05 AUDIO
    TITLE "אחד את השני"
    PERFORMER ""
    REM COMPOSER ""
    INDEX 00 04:59:65
FILE "05 - אחד את השני.wav" WAVE
    INDEX 01 00:00:00
  TRACK 06 AUDIO
    TITLE "שבר ענן"
    PERFORMER ""
    REM COMPOSER ""
    INDEX 00 05:48:68
FILE "06 - שבר ענן.wav" WAVE
    INDEX 01 00:00:00
  TRACK 07 AUDIO
    TITLE "07 - מותק אל תיבכי"
    PERFORMER ""
    REM COMPOSER ""
    INDEX 00 03:45:38
FILE "07 - מותק אל תיבכי.wav" WAVE
    INDEX 01 00:00:00
FILE "08 - צייד בודד.wav" WAVE
  TRACK 08 AUDIO
    TITLE "צייד בודד"
    PERFORMER ""
    REM COMPOSER ""
    INDEX 01 00:00:00
  TRACK 09 AUDIO
    TITLE "דרך חזרה"
    PERFORMER ""
    REM COMPOSER ""
    INDEX 00 03:43:20
FILE "09 - דרך חזרה.wav" WAVE
    INDEX 01 00:00:00
  TRACK 10 AUDIO
    TITLE "חלון לעולם אחר"
    PERFORMER ""
    REM COMPOSER ""
    INDEX 00 04:32:65
FILE "10 - חלון לעולם אחר.wav" WAVE
    INDEX 01 00:00:00
  TRACK 11 AUDIO
    TITLE "הולך מתרחק"
    PERFORMER ""
    REM COMPOSER ""
    INDEX 00 03:21:15
FILE "11 - הולך מתרחק.wav" WAVE
    INDEX 01 00:00:00
  TRACK 12 AUDIO
    TITLE "אפילוג"
    PERFORMER ""
    REM COMPOSER ""
    INDEX 00 04:46:02
FILE "12 - אפילוג.wav" WAVE
    INDEX 01 00:00:00

Код:
יצחק קלפטר [Itzhak Klepter] - גיטרות , כותב מילים , מלחין
ירוסלב יעקובוביץ [Jaroslav Jakubovitz] - סקסופון , מפיק מוסיקלי
משה לוי [Moshe Levi] - המונד וקלידים
רוני צדיק [Roni Zadik] - תופים וכלי הקשה
אמיתי פריינטה [Amitay Frainta] - גיטרה בס

Правила, инструкции, FAQ!!!
Торрент  Добавлен [26 мар 2019, 21:06] Скачать торрент Магнет ссылка
Скачать торрент
[ Размер 18.71 КБ / Просмотров 0 ]

Статус
Проверен 
 
Размер  1.11 ГБ
Приватный: Нет (DHT включён)
.torrent скачан  0
 


     Отправить личное сообщение
   
Страница 1 из 1
Показать сообщения за:  Поле сортировки  
Начать новую тему Ответить на тему


Сейчас этот форум просматривают: нет зарегистрированных пользователей и гости: 0


Вы не можете начинать темы
Вы не можете отвечать на сообщения
Вы не можете редактировать свои сообщения
Вы не можете удалять свои сообщения
Вы не можете добавлять вложения

Перейти:  
cron