Начать новую тему Ответить на тему
Статистика раздачи
Размер: 284.34 МБ | Добавлен: 26 мар 2019, 19:26 | Скачали: 0
Сидеров: 0  [0 байт/сек]    Личеров: 0  [0 байт/сек]
Пред. тема | След. тема 

Автор
Сообщение

СообщениеДобавлено: 26 мар 2019, 19:26 

Ответить с цитатой 

M. Chandler / M. Chandler
Жанр: Rock, Pop Rock, Indie Pop
Носитель: CD
Страна-производитель диска (релиза): France
Год издания: 2018
Издатель (лейбл): Sunset Hill Music
Аудиокодек: FLAC (*.flac)
Тип рипа: tracks+.cue
Битрейт аудио: lossless
Продолжительность: 45:17
Источник (релизер): artmuss
Наличие сканов в содержимом раздачи: Front
Треклист:
01. Les nuits blanches (4:40)
02. Vieillir à mort (4:42)
03. Une seconde (5:29)
04. Un oiseau sur un fil (3:46)
05. Silence de glace (4:59)
06. La dernière étoile (3:33)
07. Mon manteau bleu (3:01)
08. Comprimés pour déprimés (6:07)
09. Rêver ensemble (3:59)
10. Le bateau (4:57)
Код:
Exact Audio Copy V1.3 from 2. September 2016
EAC extraction logfile from 10. May 2018, 21:39
M. Chandler / M. Chandler
Used drive  : hp      DVDRW  DU8A6SH   Adapter: 1  ID: 0
Read mode               : Secure
Utilize accurate stream : Yes
Defeat audio cache      : Yes
Make use of C2 pointers : No
Read offset correction                      : 6
Overread into Lead-In and Lead-Out          : No
Fill up missing offset samples with silence : Yes
Delete leading and trailing silent blocks   : No
Null samples used in CRC calculations       : Yes
Used interface                              : Native Win32 interface for Win NT & 2000
Gap handling                                : Appended to previous track
Used output format              : User Defined Encoder
Selected bitrate                : 128 kBit/s
Quality                         : High
Add ID3 tag                     : No
Command line compressor         : C:\Program Files (x86)\Exact Audio Copy\Flac\flac.exe
Additional command line options : -8 -e -p -V -T "ARTIST=%artist%" -T "TITLE=%title%" -T "ALBUM=%albumtitle%" -T "DATE=%year%" -T "TRACKNUMBER=%tracknr%" -T "GENRE=%genre%" -T "PERFORMER=%albuminterpret%" -T "COMPOSER=%composer%" %haslyrics%--tag-from-file=LYRICS="%lyricsfile%"%haslyrics% -T "ALBUMARTIST=%albumartist%" -T "DISCNUMBER=%cdnumber%" -T "TOTALDISCS=%totalcds%" -T "TOTALTRACKS=%numtracks%" -T "COMMENT=%comment%" %source% -o %dest%
TOC of the extracted CD
     Track |   Start  |  Length  | Start sector | End sector
    ---------------------------------------------------------
        1  |  0:00.00 |  4:40.46 |         0    |    21045
        2  |  4:40.46 |  4:42.12 |     21046    |    42207
        3  |  9:22.58 |  5:29.61 |     42208    |    66943
        4  | 14:52.44 |  3:46.11 |     66944    |    83904
        5  | 18:38.55 |  4:59.15 |     83905    |   106344
        6  | 23:37.70 |  3:33.49 |    106345    |   122368
        7  | 27:11.44 |  3:01.05 |    122369    |   135948
        8  | 30:12.49 |  6:07.12 |    135949    |   163485
        9  | 36:19.61 |  3:59.53 |    163486    |   181463
       10  | 40:19.39 |  4:57.01 |    181464    |   203739
Track  1
     Filename C:\EAC Rips\M. Chandler - M. Chandler (2018) [FLAC]\01 - Les nuits blanches.wav
     Pre-gap length  0:00:02.00
     Peak level 98.8 %
     Extraction speed 1.1 X
     Track quality 100.0 %
     Test CRC EF6589D0
     Copy CRC EF6589D0
     Track not present in AccurateRip database
     Copy OK
Track  2
     Filename C:\EAC Rips\M. Chandler - M. Chandler (2018) [FLAC]\02 - Vieillir à mort.wav
     Peak level 98.8 %
     Extraction speed 1.1 X
     Track quality 99.9 %
     Test CRC A64F90B8
     Copy CRC A64F90B8
     Track not present in AccurateRip database
     Copy OK
Track  3
     Filename C:\EAC Rips\M. Chandler - M. Chandler (2018) [FLAC]\03 - Une seconde.wav
     Peak level 98.8 %
     Extraction speed 1.4 X
     Track quality 100.0 %
     Test CRC AE19C7AE
     Copy CRC AE19C7AE
     Track not present in AccurateRip database
     Copy OK
Track  4
     Filename C:\EAC Rips\M. Chandler - M. Chandler (2018) [FLAC]\04 - Un oiseau sur un fil.wav
     Peak level 98.8 %
     Extraction speed 1.5 X
     Track quality 100.0 %
     Test CRC A4D490C4
     Copy CRC A4D490C4
     Track not present in AccurateRip database
     Copy OK
Track  5
     Filename C:\EAC Rips\M. Chandler - M. Chandler (2018) [FLAC]\05 - Silence de glace.wav
     Peak level 98.8 %
     Extraction speed 1.6 X
     Track quality 100.0 %
     Test CRC EF3FE085
     Copy CRC EF3FE085
     Track not present in AccurateRip database
     Copy OK
Track  6
     Filename C:\EAC Rips\M. Chandler - M. Chandler (2018) [FLAC]\06 - La dernière étoile.wav
     Peak level 98.8 %
     Extraction speed 1.7 X
     Track quality 100.0 %
     Test CRC 88845F30
     Copy CRC 88845F30
     Track not present in AccurateRip database
     Copy OK
Track  7
     Filename C:\EAC Rips\M. Chandler - M. Chandler (2018) [FLAC]\07 - Mon manteau bleu.wav
     Peak level 98.7 %
     Extraction speed 1.7 X
     Track quality 100.0 %
     Test CRC 369B0BD7
     Copy CRC 369B0BD7
     Track not present in AccurateRip database
     Copy OK
Track  8
     Filename C:\EAC Rips\M. Chandler - M. Chandler (2018) [FLAC]\08 - Comprimés pour déprimés.wav
     Peak level 98.8 %
     Extraction speed 1.8 X
     Track quality 99.9 %
     Test CRC B0E46C87
     Copy CRC B0E46C87
     Track not present in AccurateRip database
     Copy OK
Track  9
     Filename C:\EAC Rips\M. Chandler - M. Chandler (2018) [FLAC]\09 - Rêver ensemble.wav
     Peak level 98.7 %
     Extraction speed 1.7 X
     Track quality 99.9 %
     Test CRC 66459677
     Copy CRC 66459677
     Track not present in AccurateRip database
     Copy OK
Track 10
     Filename C:\EAC Rips\M. Chandler - M. Chandler (2018) [FLAC]\10 - Le bateau.wav
     Peak level 98.7 %
     Extraction speed 2.1 X
     Track quality 100.0 %
     Test CRC BE9A7632
     Copy CRC BE9A7632
     Track not present in AccurateRip database
     Copy OK
None of the tracks are present in the AccurateRip database
No errors occurred
End of status report
---- CUETools DB Plugin V2.1.6
[CTDB TOCID: X4vofNlmvaJYqGuHsSeBuU3Gxic-] disk not present in database
Submit result: X4vofNlmvaJYqGuHsSeBuU3Gxic- has been uploaded
==== Log checksum AD3A86898649A05CC9F16F7B6721CA41964DB9533CEC25BEF3A7084C19633210 ====
Код:
REM GENRE "pop, rock"
REM DATE 2018
REM DISCID 750A9C0A
REM COMMENT "ExactAudioCopy v1.3"
PERFORMER "M. Chandler"
TITLE "M. Chandler"
REM COMPOSER ""
FILE "01 - Les nuits blanches.wav" WAVE
  TRACK 01 AUDIO
    TITLE "Les nuits blanches"
    PERFORMER "M. Chandler"
    REM COMPOSER ""
    ISRC CAH721807001
    FLAGS DCP
    INDEX 01 00:00:00
FILE "02 - Vieillir à mort.wav" WAVE
  TRACK 02 AUDIO
    TITLE "Vieillir à mort"
    PERFORMER "M. Chandler"
    REM COMPOSER ""
    ISRC CAH721807002
    FLAGS DCP
    INDEX 01 00:00:00
FILE "03 - Une seconde.wav" WAVE
  TRACK 03 AUDIO
    TITLE "Une seconde"
    PERFORMER "M. Chandler"
    REM COMPOSER ""
    ISRC CAH721807003
    FLAGS DCP
    INDEX 01 00:00:00
FILE "04 - Un oiseau sur un fil.wav" WAVE
  TRACK 04 AUDIO
    TITLE "Un oiseau sur un fil"
    PERFORMER "M. Chandler"
    REM COMPOSER ""
    ISRC CAH721807004
    FLAGS DCP
    INDEX 01 00:00:00
FILE "05 - Silence de glace.wav" WAVE
  TRACK 05 AUDIO
    TITLE "Silence de glace"
    PERFORMER "M. Chandler"
    REM COMPOSER ""
    ISRC CAH721807005
    FLAGS DCP
    INDEX 01 00:00:00
FILE "06 - La dernière étoile.wav" WAVE
  TRACK 06 AUDIO
    TITLE "La dernière étoile"
    PERFORMER "M. Chandler"
    REM COMPOSER ""
    ISRC CAH721807006
    FLAGS DCP
    INDEX 01 00:00:00
FILE "07 - Mon manteau bleu.wav" WAVE
  TRACK 07 AUDIO
    TITLE "Mon manteau bleu"
    PERFORMER "M. Chandler"
    REM COMPOSER ""
    ISRC CAH721807007
    FLAGS DCP
    INDEX 01 00:00:00
FILE "08 - Comprimés pour déprimés.wav" WAVE
  TRACK 08 AUDIO
    TITLE "Comprimés pour déprimés"
    PERFORMER "M. Chandler"
    REM COMPOSER ""
    ISRC CAH721807008
    FLAGS DCP
    INDEX 01 00:00:00
FILE "09 - Rêver ensemble.wav" WAVE
  TRACK 09 AUDIO
    TITLE "Rêver ensemble"
    PERFORMER "M. Chandler"
    REM COMPOSER ""
    ISRC CAH721807009
    FLAGS DCP
    INDEX 01 00:00:00
FILE "10 - Le bateau.wav" WAVE
  TRACK 10 AUDIO
    TITLE "Le bateau"
    PERFORMER "M. Chandler"
    REM COMPOSER ""
    ISRC CAH721807010
    FLAGS DCP
    INDEX 01 00:00:00
Код:
foobar2000 1.1.10 / Dynamic Range Meter 1.1.1
log date: 2018-06-16 21:21:25
--------------------------------------------------------------------------------
Analyzed: M. Chandler / M. Chandler
--------------------------------------------------------------------------------
DR         Peak         RMS     Duration Track
--------------------------------------------------------------------------------
DR5       -0.10 dB    -7.40 dB      4:41 ?-Les nuits blanches
DR6       -0.11 dB    -7.45 dB      4:42 ?-Vieillir à mort
DR5       -0.10 dB    -7.86 dB      5:30 ?-Une seconde
DR5       -0.11 dB    -6.49 dB      3:46 ?-Un oiseau sur un fil
DR5       -0.11 dB    -7.94 dB      4:59 ?-Silence de glace
DR6       -0.10 dB    -7.29 dB      3:34 ?-La dernière étoile
DR5       -0.11 dB    -6.96 dB      3:01 ?-Mon manteau bleu
DR5       -0.10 dB    -7.30 dB      6:07 ?-Comprimés pour déprimés
DR5       -0.11 dB    -6.95 dB      4:00 ?-Rêver ensemble
DR5       -0.11 dB    -6.91 dB      4:57 ?-Le bateau
--------------------------------------------------------------------------------
Number of tracks:  10
Official DR value: DR5
Samplerate:        44100 Hz
Channels:          2
Bits per sample:   16
Bitrate:           793 kbps
Codec:             FLAC
================================================================================
Suite à une rencontre fortuite en 2016, Ian Kelly et le Magneto Trio, composé des musiciens Rick Haworth, Sylvain Clavette et Mario Légaré, se sont retrouvés au studio Sunset Hill, à Morin Heights, pour une simple session musicale d’improvisation. Nous voici à la veille de la sortie en magasin et en ligne de l’album éponyme du groupe M. Chandler, le fruit de cette collaboration inespérée.
Puisant dans la mélancolie, les textes signés Kelly abordent l’amour et la famille à travers le quotidien dans toute sa simplicité et touchent par leur vérité. La poignante Silence de glace en témoigne.

Раздаю до первых 5-ти скачавших, на раздачи не возвращаюсь...

Правила, инструкции, FAQ!!!
Торрент  Добавлен [26 мар 2019, 19:26] Скачать торрент Магнет ссылка
Скачать торрент
[ Размер 12.39 КБ / Просмотров 1 ]

Статус
Проверен 
 
Размер  284.34 МБ
Приватный: Нет (DHT включён)
.torrent скачан  0
 


     Отправить личное сообщение
   
Страница 1 из 1
Показать сообщения за:  Поле сортировки  
Начать новую тему Ответить на тему


Сейчас этот форум просматривают: нет зарегистрированных пользователей и гости: 0


Вы не можете начинать темы
Вы не можете отвечать на сообщения
Вы не можете редактировать свои сообщения
Вы не можете удалять свои сообщения
Вы не можете добавлять вложения

Перейти:  
cron