Начать новую тему Ответить на тему
Статистика раздачи
Размер: 308.86 МБ | Добавлен: 21 авг 2020, 20:23 | Скачали: 0
Сидеров: 19  [0 байт/сек]    Личеров: 6  [0 байт/сек]
Пред. тема | След. тема 

Автор
Сообщение

СообщениеДобавлено: 21 авг 2020, 20:23 

Ответить с цитатой 

Graham Gouldman / Modesty Forbids
#777Жанр: Rock, Pop Rock
Носитель: CD
Страна-производитель диска (релиза): UK
Год издания: 2020
Издатель (лейбл): Rosala Records
Номер по каталогу: LJX121CD
Аудиокодек: FLAC (*.flac)
Тип рипа: image+.cue
Продолжительность: 00:39:19
Источник (релизер): London
Наличие сканов в содержимом раздачи: да
Треклист:
01. Standing Next To Me 04:00
02. That's Love Right There 02:37
03. All Around The World 03:15
04. It's Not You It's Me 03:23
05. What Time Won't Heal 03:48
06. Different Times 03:24
07. Wake Up Dreamer 03:07
08. Russian Doll 04:27
09. Hangin' By A Thread 03:54
10. Waited All My Life For You 03:48
11. New Star 03:32
Код:
Exact Audio Copy V1.3 from 2. September 2016
EAC extraction logfile from 18. August 2020, 12:20
Graham Gouldman / Modesty Forbids
Used drive  : ATAPI   iHAS122   C   Adapter: 1  ID: 0
Read mode               : Secure
Utilize accurate stream : Yes
Defeat audio cache      : Yes
Make use of C2 pointers : No
Read offset correction                      : 6
Overread into Lead-In and Lead-Out          : No
Fill up missing offset samples with silence : Yes
Delete leading and trailing silent blocks   : No
Null samples used in CRC calculations       : Yes
Used interface                              : Native Win32 interface for Win NT & 2000
Used output format : Internal WAV Routines
Sample format      : 44.100 Hz; 16 Bit; Stereo
TOC of the extracted CD
     Track |   Start  |  Length  | Start sector | End sector
    ---------------------------------------------------------
        1  |  0:00.00 |  4:00.10 |         0    |    18009
        2  |  4:00.10 |  2:37.65 |     18010    |    29849
        3  |  6:38.00 |  3:15.66 |     29850    |    44540
        4  |  9:53.66 |  3:23.37 |     44541    |    59802
        5  | 13:17.28 |  3:48.04 |     59803    |    76906
        6  | 17:05.32 |  3:24.19 |     76907    |    92225
        7  | 20:29.51 |  3:06.74 |     92226    |   106249
        8  | 23:36.50 |  4:27.61 |    106250    |   126335
        9  | 28:04.36 |  3:54.61 |    126336    |   143946
       10  | 31:59.22 |  3:48.50 |    143947    |   161096
       11  | 35:47.72 |  3:31.20 |    161097    |   176941
Range status and errors
Selected range
     Filename C:\Users\LondonW1\Desktop\Graham Gouldman - Modesty Forbids.wav
     Peak level 98.9 %
     Extraction speed 5.3 X
     Range quality 100.0 %
     Test CRC EE31F268
     Copy CRC EE31F268
     Copy OK
No errors occurred
AccurateRip summary
Track  1  not present in database
Track  2  not present in database
Track  3  not present in database
Track  4  not present in database
Track  5  not present in database
Track  6  not present in database
Track  7  not present in database
Track  8  not present in database
Track  9  not present in database
Track 10  not present in database
Track 11  not present in database
None of the tracks are present in the AccurateRip database
End of status report
---- CUETools DB Plugin V2.1.6
[CTDB TOCID: O2u6xpGqjqHHMPCT9HAf4Cjw6bI-] found
Submit result: already submitted
Track | CTDB Status
  1   | (8/8) Accurately ripped
  2   | (8/8) Accurately ripped
  3   | (8/8) Accurately ripped
  4   | (8/8) Accurately ripped
  5   | (8/8) Accurately ripped
  6   | (8/8) Accurately ripped
  7   | (8/8) Accurately ripped
  8   | (8/8) Accurately ripped
  9   | (8/8) Accurately ripped
 10   | (8/8) Accurately ripped
 11   | (8/8) Accurately ripped
==== Log checksum B926EC4BF735CF7BFCE9653E51A39A567AAF42D6DDB439E5B6E449C14A360521 ====
Код:
REM GENRE Rock
REM DATE 2020
REM DISCID 8B09370B
REM COMMENT "ExactAudioCopy v1.3"
PERFORMER "Graham Gouldman"
TITLE "Modesty Forbids"
REM COMPOSER "Graham Gouldman"
FILE "Graham Gouldman - Modesty Forbids.flac" WAVE
  TRACK 01 AUDIO
    TITLE "Standing Next To Me"
    PERFORMER "Graham Gouldman"
    REM COMPOSER "Graham Gouldman"
    INDEX 01 00:00:00
  TRACK 02 AUDIO
    TITLE "That's Love Right There"
    PERFORMER "Graham Gouldman"
    REM COMPOSER "Graham Gouldman"
    INDEX 01 04:00:10
  TRACK 03 AUDIO
    TITLE "All Around The World"
    PERFORMER "Graham Gouldman"
    REM COMPOSER "Graham Gouldman, Beth Neilson Chapman, Gordon Kennedy"
    INDEX 01 06:38:00
  TRACK 04 AUDIO
    TITLE "It's Not You It's Me"
    PERFORMER "Graham Gouldman"
    REM COMPOSER "Graham Gouldman"
    INDEX 01 09:53:66
  TRACK 05 AUDIO
    TITLE "What Time Won't Heal"
    PERFORMER "Graham Gouldman"
    REM COMPOSER "Graham Gouldman, Bill Lloyd"
    INDEX 01 13:17:28
  TRACK 06 AUDIO
    TITLE "Different Times"
    PERFORMER "Graham Gouldman"
    REM COMPOSER "Graham Gouldman, Graeme Pleeth, Anna Krantz"
    INDEX 01 17:05:32
  TRACK 07 AUDIO
    TITLE "Wake Up Dreamer"
    PERFORMER "Graham Gouldman"
    REM COMPOSER "Graham Gouldman, Iain Hornal"
    INDEX 01 20:29:51
  TRACK 08 AUDIO
    TITLE "Russian Doll"
    PERFORMER "Graham Gouldman"
    REM COMPOSER "Graham Gouldman, Graeme Pleeth"
    INDEX 01 23:36:50
  TRACK 09 AUDIO
    TITLE "Hangin' By A Thread"
    PERFORMER "Graham Gouldman"
    REM COMPOSER "Graham Gouldman, Cassa Jackson"
    INDEX 01 28:04:36
  TRACK 10 AUDIO
    TITLE "Waited All My Life For You"
    PERFORMER "Graham Gouldman"
    REM COMPOSER "Graham Gouldman, Phil Thornalley"
    INDEX 01 31:59:22
  TRACK 11 AUDIO
    TITLE "New Star"
    PERFORMER "Graham Gouldman"
    REM COMPOSER "Graham Gouldman, Iain Hornal"
    INDEX 01 35:47:72
Код:
foobar2000 1.3.13 / Dynamic Range Meter 1.1.1
log date: 2020-08-18 12:23:56
--------------------------------------------------------------------------------
Analyzed: Graham Gouldman / Modesty Forbids
--------------------------------------------------------------------------------
DR         Peak         RMS     Duration Track
--------------------------------------------------------------------------------
DR8       -0.09 dB    -9.82 dB      4:00 01-Standing Next To Me
DR9       -0.09 dB   -10.18 dB      2:38 02-That's Love Right There
DR7       -0.09 dB    -8.51 dB      3:16 03-All Around The World
DR8       -0.09 dB    -9.52 dB      3:23 04-It's Not You It's Me
DR8       -0.09 dB    -9.06 dB      3:48 05-What Time Won't Heal
DR7       -0.09 dB    -8.98 dB      3:24 06-Different Times
DR6       -0.09 dB    -8.04 dB      3:07 07-Wake Up Dreamer
DR9       -0.25 dB   -12.28 dB      4:28 08-Russian Doll
DR7       -0.09 dB    -8.87 dB      3:55 09-Hangin' By A Thread
DR8       -0.12 dB   -10.02 dB      3:49 10-Waited All My Life For You
DR10      -0.29 dB   -11.95 dB      3:31 11-New Star
--------------------------------------------------------------------------------
Number of tracks:  11
Official DR value: DR8
Samplerate:        44100 Hz
Channels:          2
Bits per sample:   16
Bitrate:           891 kbps
Codec:             FLAC
================================================================================

Раздаю до первых 5-ти скачавших, на раздачи не возвращаюсь...

Правила, инструкции, FAQ!!!
Торрент  Добавлен [21 авг 2020, 20:23] Скачать торрент Магнет ссылка
Скачать торрент
[ Размер 13.21 КБ / Просмотров 4 ]

Статус
Проверен 
 
Размер  308.86 МБ
Приватный: Нет (DHT включён)
.torrent скачан  0
 


     Отправить личное сообщение
   
Страница 1 из 1
Показать сообщения за:  Поле сортировки  
Начать новую тему Ответить на тему


Сейчас этот форум просматривают: нет зарегистрированных пользователей и гости: 0


Вы не можете начинать темы
Вы не можете отвечать на сообщения
Вы не можете редактировать свои сообщения
Вы не можете удалять свои сообщения
Вы не можете добавлять вложения

Перейти:  
cron