Начать новую тему Ответить на тему
Статистика раздачи
Размер: 295.8 МБ | Добавлен: 26 мар 2019, 19:26 | Скачали: 0
Сидеров: 0  [0 байт/сек]    Личеров: 0  [0 байт/сек]
Пред. тема | След. тема 

Автор
Сообщение

СообщениеДобавлено: 26 мар 2019, 19:26 

Ответить с цитатой 

ENorm - Finding My Way
Жанр: Rock / Pop Rock
Носитель: CD
Год издания: 2012
Страна группы: Netherland
Аудиокодек: FLAC (*.flac)
Тип рипа: tracks+.cue
Битрейт аудио: lossless
Продолжительность: 00:45:25
Релизер: BozMozzis
Наличие сканов в содержимом раздачи: нет
Треклист:
01. Horizon (03:33)
02. High Above the Ground 03:44
03. The Widow 04:05
04. Teacher 02:52
05. Zoe 04:48
06. Happy & Alive 02:56
07. My Friend 03:57
08. Impossible Love 03:31
09. Famous 02:51
10. Brown Sugar 02:54
11. My Son 03:04
12. Godless 03:42
13. Dad 03:31
Код:
X Lossless Decoder version 20120226 (139.1)
XLD extraction logfile from 2012-09-11 17:58:28 +0000
eNorm / Finding My Way
Used drive : HL-DT-ST DVDRW  GA32N (revision KE06)
Ripper mode             : XLD Secure Ripper
Disable audio cache     : OK for the drive with a cache less than 1375KiB
Make use of C2 pointers : NO
Read offset correction  : 103
Max retry count         : 100
Gap status              : Analyzed, Appended
TOC of the extracted CD
        Track |   Start  |  Length  | Start sector | End sector
      ---------------------------------------------------------
1  | 00:00:00 | 03:33:38 |         0    |    16012
2  | 03:33:38 | 03:44:15 |     16013    |    32827
3  | 07:17:53 | 04:05:21 |     32828    |    51223
4  | 11:22:74 | 02:52:27 |     51224    |    64150
5  | 14:15:26 | 04:47:74 |     64151    |    85749
6  | 19:03:25 | 02:55:73 |     85750    |    98947
7  | 21:59:23 | 03:57:71 |     98948    |   116793
8  | 25:57:19 | 03:31:26 |    116794    |   132644
9  | 29:28:45 | 02:50:74 |    132645    |   145468
10  | 32:19:44 | 02:54:15 |    145469    |   158533
11  | 35:13:59 | 03:04:06 |    158534    |   172339
12  | 38:17:65 | 03:42:10 |    172340    |   188999
13  | 42:00:00 | 03:31:36 |    189000    |   204860
AccurateRip Summary
Disc not found in AccurateRip DB.
All Tracks
     Album gain             : -9.90 dB
     Peak                   : 1.000000
Statistics
     Read error                                 : 0
     Jitter error (maybe fixed)           : 0
     Retry sector count                     : 0
     Damaged sector count               : 0
Track 01
     Filename : /Users/Shared/CD Rips/eNorm/01 - Horizon.flac
     Pre-gap length : 00:02:00
     Track gain             : -10.55 dB
     Peak                   : 1.000000
CRC32 hash (test run)  : 1972F4AF
CRC32 hash             : 1972F4AF
CRC32 hash (skip zero) : 7DA1CD9B
AccurateRip signature  : E35BC101
->Track not present in AccurateRip database.
     Statistics
Read error                           : 0
Jitter error (maybe fixed)     : 0
Retry sector count               : 0
Damaged sector count         : 0
Track 02
    Filename : /Users/Shared/CD Rips/eNorm/02 - High Above The Ground.flac
Pre-gap length : 00:02:00
Track gain             : -8.93 dB
Peak                   : 1.000000
CRC32 hash (test run)  : 67F08394
CRC32 hash             : 67F08394
CRC32 hash (skip zero) : 02BAB283
AccurateRip signature  : 77CB0FB9
->Track not present in AccurateRip database.
Statistics
Read error                           : 0
Jitter error (maybe fixed)     : 0
Retry sector count               : 0
Damaged sector count         : 0
Track 03
    Filename : /Users/Shared/CD Rips/eNorm/03 - The Widow.flac
Pre-gap length : 00:02:00
Track gain             : -7.93 dB
Peak                   : 0.886139
CRC32 hash (test run)  : 10660B55
CRC32 hash             : 10660B55
CRC32 hash (skip zero) : 05EE226C
AccurateRip signature  : 1000D185
->Track not present in AccurateRip database.
Statistics
Read error                           : 0
 Jitter error (maybe fixed)    : 0
Retry sector count               : 0
Damaged sector count         : 0
Track 04
    Filename : /Users/Shared/CD Rips/eNorm/04 - Teacher.flac
Pre-gap length : 00:02:00
Track gain             : -11.13 dB
Peak                   : 0.994263
CRC32 hash (test run)  : 74284926
CRC32 hash             : 74284926
CRC32 hash (skip zero) : 148886AC
AccurateRip signature  : 9560AE6B
->Track not present in AccurateRip database.
Statistics
Read error                           : 0
Jitter error (maybe fixed)     : 0
Retry sector count               : 0
Damaged sector count         : 0
Track 05
    Filename : /Users/Shared/CD Rips/eNorm/05 - Zoe.flac
Pre-gap length : 00:02:00
Track gain             : -8.74 dB
Peak                   : 0.865967
CRC32 hash (test run)  : 995910E9
CRC32 hash             : 995910E9
CRC32 hash (skip zero) : 42EF4A42
AccurateRip signature  : 333ADE45
->Track not present in AccurateRip database.
Statistics
Read error                           : 0
Jitter error (maybe fixed)     : 0
Retry sector count               : 0
Damaged sector count         : 0
Track 06
    Filename : /Users/Shared/CD Rips/eNorm/06 - Happy & Alive.flac
Pre-gap length : 00:02:00
Track gain             : -10.49 dB
Peak                   : 1.000000
CRC32 hash (test run)  : 6E2C615C
CRC32 hash             : 6E2C615C
CRC32 hash (skip zero) : 17605E44
AccurateRip signature  : 0AC26C12
->Track not present in AccurateRip database.
Statistics
Read error                           : 0
Jitter error (maybe fixed)     : 0
Retry sector count               : 0
Damaged sector count         : 0
Track 07
    Filename : /Users/Shared/CD Rips/eNorm/07 - My Friend.flac
Pre-gap length : 00:02:00
Track gain             : -9.65 dB
Peak                   : 0.994263
CRC32 hash (test run)  : F2A20E45
CRC32 hash             : F2A20E45
CRC32 hash (skip zero) : 97A27E85
AccurateRip signature  : 2A3C892D
->Track not present in AccurateRip database.
Statistics
Read error                           : 0
Jitter error (maybe fixed)     : 0
Retry sector count               : 0
Damaged sector count         : 0
Track 08
    Filename : /Users/Shared/CD Rips/eNorm/08 - Impossible Love.flac
Pre-gap length : 00:02:00
Track gain             : -8.02 dB
Peak                   : 0.918671
CRC32 hash (test run)  : 779E0ED8
CRC32 hash             : 779E0ED8
CRC32 hash (skip zero) : EC67F801
AccurateRip signature  : 99FED3D2
->Track not present in AccurateRip database.
Statistics
Read error                           : 0
Jitter error (maybe fixed)     : 0
Retry sector count               : 0
Damaged sector count         : 0
Track 09
    Filename : /Users/Shared/CD Rips/eNorm/09 - Famous.flac
Pre-gap length : 00:02:00
Track gain             : -10.37 dB
Peak                   : 0.994263
CRC32 hash (test run)  : D7D7E2CD
CRC32 hash             : D7D7E2CD
CRC32 hash (skip zero) : 01A90B06
AccurateRip signature  : 861E83AF
->Track not present in AccurateRip database.
Statistics
Read error                           : 0
Jitter error (maybe fixed)     : 0
Retry sector count               : 0
Damaged sector count         : 0
Track 10
    Filename : /Users/Shared/CD Rips/eNorm/10 - Brown Sugar.flac
Pre-gap length : 00:02:00
Track gain             : -9.82 dB
Peak                   : 1.000000
CRC32 hash (test run)  : 1F9431DA
CRC32 hash             : 1F9431DA
CRC32 hash (skip zero) : C57AE632
AccurateRip signature  : 0863E041
->Track not present in AccurateRip database.
Statistics
Read error                           : 0
Jitter error (maybe fixed)      : 0
Retry sector count                : 0
Damaged sector count          : 0
Track 11
    Filename : /Users/Shared/CD Rips/eNorm/11 - My Son.flac
Pre-gap length : 00:02:00
Track gain             : -7.87 dB
Peak                   : 0.994263
CRC32 hash (test run)  : A84EC1AA
CRC32 hash             : A84EC1AA
CRC32 hash (skip zero) : FF68C6CE
AccurateRip signature  : CF3A7713
->Track not present in AccurateRip database.
Statistics
Read error                           : 0
Jitter error (maybe fixed)      : 0
Retry sector count                : 0
Damaged sector count           : 0
Track 12
    Filename : /Users/Shared/CD Rips/eNorm/12 - Godless.flac
Pre-gap length : 00:02:00
Track gain             : -9.78 dB
Peak                   : 1.000000
CRC32 hash (test run)  : 5707FB46
CRC32 hash             : 5707FB46
CRC32 hash (skip zero) : B540EC7A
AccurateRip signature  : F3B5DC1C
 ->Track not present in AccurateRip database.
Statistics
Read error                           : 0
Jitter error (maybe fixed)      : 0
Retry sector count                : 0
Damaged sector count          : 0
Track 13
    Filename : /Users/Shared/CD Rips/eNorm/13 - Dad.flac
Pre-gap length : 00:02:00
Track gain             : -8.41 dB
Peak                   : 1.000000
CRC32 hash (test run)  : DF5AA2E4
CRC32 hash             : DF5AA2E4
CRC32 hash (skip zero) : 561EB68F
AccurateRip signature  : FF15230E
->Track not present in AccurateRip database.
Statistics
Read error                           : 0
Jitter error (maybe fixed)      : 0
Retry sector count                : 0
Damaged sector count          : 0
No errors occurred
End of status report
Код:
TITLE "Finding My Way"
PERFORMER "eNorm"
REM DISCNUMBER 2012
REM DISCID AE0AAB0D
REM REPLAYGAIN_ALBUM_GAIN -9.90 dB
REM REPLAYGAIN_ALBUM_PEAK 1.000000
FILE "01 - Horizon.flac" WAVE
TRACK 01 AUDIO
TITLE "Horizon"
REM REPLAYGAIN_TRACK_GAIN -10.55 dB
REM REPLAYGAIN_TRACK_PEAK 1.000000
INDEX 01 00:00:00
TRACK 02 AUDIO
TITLE "High Above The Ground"
REM REPLAYGAIN_TRACK_GAIN -8.93 dB
REM REPLAYGAIN_TRACK_PEAK 1.000000
INDEX 00 03:31:38
FILE "02 - High Above The Ground.flac" WAVE
INDEX 01 00:00:00
TRACK 03 AUDIO
TITLE "The Widow"
REM REPLAYGAIN_TRACK_GAIN -7.93 dB
REM REPLAYGAIN_TRACK_PEAK 0.886139
INDEX 00 03:42:15
FILE "03 - The Widow.flac" WAVE
INDEX 01 00:00:00
TRACK 04 AUDIO
TITLE "Teacher"
REM REPLAYGAIN_TRACK_GAIN -11.13 dB
REM REPLAYGAIN_TRACK_PEAK 0.994263
INDEX 00 04:03:21
FILE "04 - Teacher.flac" WAVE
INDEX 01 00:00:00
  TRACK 05 AUDIO
TITLE "Zoe"
REM REPLAYGAIN_TRACK_GAIN -8.74 dB
REM REPLAYGAIN_TRACK_PEAK 0.865967
INDEX 00 02:50:27
FILE "05 - Zoe.flac" WAVE
INDEX 01 00:00:00
TRACK 06 AUDIO
TITLE "Happy & Alive"
REM REPLAYGAIN_TRACK_GAIN -10.49 dB
REM REPLAYGAIN_TRACK_PEAK 1.000000
INDEX 00 04:45:74
FILE "06 - Happy & Alive.flac" WAVE
INDEX 01 00:00:00
  TRACK 07 AUDIO
TITLE "My Friend"
REM REPLAYGAIN_TRACK_GAIN -9.65 dB
REM REPLAYGAIN_TRACK_PEAK 0.994263
INDEX 00 02:53:73
FILE "07 - My Friend.flac" WAVE
INDEX 01 00:00:00
TRACK 08 AUDIO
TITLE "Impossible Love"
REM REPLAYGAIN_TRACK_GAIN -8.02 dB
REM REPLAYGAIN_TRACK_PEAK 0.918671
INDEX 00 03:55:71
FILE "08 - Impossible Love.flac" WAVE
INDEX 01 00:00:00
  TRACK 09 AUDIO
TITLE "Famous"
REM REPLAYGAIN_TRACK_GAIN -10.37 dB
REM REPLAYGAIN_TRACK_PEAK 0.994263
INDEX 00 03:29:26
FILE "09 - Famous.flac" WAVE
INDEX 01 00:00:00
TRACK 10 AUDIO
TITLE "Brown Sugar"
REM REPLAYGAIN_TRACK_GAIN -9.82 dB
REM REPLAYGAIN_TRACK_PEAK 1.000000
INDEX 00 02:48:74
FILE "10 - Brown Sugar.flac" WAVE
INDEX 01 00:00:00
TRACK 11 AUDIO
TITLE "My Son"
REM REPLAYGAIN_TRACK_GAIN -7.87 dB
REM REPLAYGAIN_TRACK_PEAK 0.994263
INDEX 00 02:52:15
FILE "11 - My Son.flac" WAVE
INDEX 01 00:00:00
TRACK 12 AUDIO
TITLE "Godless"
REM REPLAYGAIN_TRACK_GAIN -9.78 dB
REM REPLAYGAIN_TRACK_PEAK 1.000000
INDEX 00 03:02:06
FILE "12 - Godless.flac" WAVE
INDEX 01 00:00:00
TRACK 13 AUDIO
TITLE "Dad"
REM REPLAYGAIN_TRACK_GAIN -8.41 dB
REM REPLAYGAIN_TRACK_PEAK 1.000000
INDEX 00 03:40:10
FILE "13 - Dad.flac" WAVE
INDEX 01 00:00:00
Код:
AUDIOCHECKER v2.0 beta (build 457) - by Dester - opdester@freemail.hu
~~~~~~~~~~~~~~~~~~~~~~~~~~~~~~~~~~
-=== НЕ РЕДАКТИРУЙТЕ ЭТОТ ФАЙЛ! ===-
Путь: ...\ENorm  - Finding My Way - 2012 [FLAC]
01 -=- 01 - Horizon.flac -=- CDDA (100%)
02 -=- 02 - High Above the Ground.flac -=- CDDA (100%)
03 -=- 03 - The Widow.flac -=- CDDA (100%)
04 -=- 04 - Teacher.flac -=- CDDA (100%)
05 -=- 05 - Zoe.flac -=- CDDA (100%)
06 -=- 06 - Happy & Alive.flac -=- CDDA (100%)
07 -=- 07 - My Friend.flac -=- CDDA (100%)
08 -=- 08 - Impossible Love.flac -=- CDDA (99%)
09 -=- 09 - Famous.flac -=- CDDA (100%)
10 -=- 10 - Brown Sugar.flac -=- CDDA (100%)
11 -=- 11 - My Son.flac -=- CDDA (100%)
12 -=- 12 - Godless.flac -=- CDDA (100%)
13 -=- 13 - Dad.flac -=- CDDA (100%)
Сводка 99,92% CDDA
38776788
Eric ten Bos - Vocals
Ronald ten Bos - Guitar / Backing vocals
Ferry Bult - Drums
Martin Platenkamp - Keyboards
Liejondo Nijhuis - Bass
Leon Westenberg - Guitar
Правила, инструкции, FAQ!!!
Торрент  Добавлен [26 мар 2019, 19:26] Скачать торрент Магнет ссылка
Скачать торрент
[ Размер 12.81 КБ / Просмотров 2 ]

Статус
Проверен 
 
Размер  295.8 МБ
Приватный: Нет (DHT включён)
.torrent скачан  0
 


     Отправить личное сообщение
   
Страница 1 из 1
Показать сообщения за:  Поле сортировки  
Начать новую тему Ответить на тему


Сейчас этот форум просматривают: нет зарегистрированных пользователей и гости: 0


Вы не можете начинать темы
Вы не можете отвечать на сообщения
Вы не можете редактировать свои сообщения
Вы не можете удалять свои сообщения
Вы не можете добавлять вложения

Перейти:  
cron