Начать новую тему Ответить на тему
Статистика раздачи
Размер: 309.48 МБ | Добавлен: 26 мар 2019, 19:13 | Скачали: 0
Сидеров: 0  [0 байт/сек]    Личеров: 0  [0 байт/сек]
Пред. тема | След. тема 

Автор
Сообщение

СообщениеДобавлено: 26 мар 2019, 19:13 

Ответить с цитатой 

.
Sara Isaksson

Red Eden .

Жанр
: Rock, Pop Rock, Country Rock
Носитель
: CD
Страна-производитель диска (релиза): Sweden
Год издания: 1995
Издатель (лейбл): MCA Music Entertainment AB
Номер по каталогу: MCA 0062
Страна исполнителя (группы): Sweden
Аудиокодек: FLAC (*.flac)
Тип рипа: image+.cue
Битрейт аудио: lossless
Продолжительность: 00:45:30
Источник (релизер): stas64
Наличие сканов в содержимом раздачи: да - 600 dpi
(кроме текстов песен внутри книжки)
.
.
.
Треклист:
01. Occasionally.
02
. May.
03. The Man.
04. To Ashes.
05. Red Eden.
06. How Could This Happen.
07. You're The Sun.
08. Cold Blue Heaven.
09. I'll Arrive.
10. Walls Came Down.
11. The Jackal.
12. Let It Rain.


Код:
Exact Audio Copy V1.1 from 23. June 2015
Отчёт EAC об извлечении, выполненном 2. мая 2016, 7:42
Sara Isaksson / Red Eden
Дисковод: PLEXTOR DVDR   PX-712A   Adapter: 8  ID: 0
Режим чтения                 : Достоверность
Использование точного потока : Да
Отключение кэша аудио        : Да
Использование указателей C2  : Нет
Коррекция смещения при чтении                     : 30
Способность читать области Lead-in и Lead-out     : Нет
Заполнение пропущенных сэмплов тишиной            : Да
Удаление блоков с тишиной в начале и конце        : Нет
При вычислениях CRC использовались нулевые сэмплы : Да
Интерфейс                                         : Установленный внешний ASPI-интерфейс
Выходной формат          : Пользовательский кодировщик
Выбранный битрейт        : 128 kBit/s
Качество                 : Высокий
Добавление ID3-тега      : Нет
Утилита сжатия           : C:\Program Files\Exact Audio Copy\Flac\flac.exe
Дополнительные параметры : -V -8 -T "Genre=%genre%" -T "Artist=%artist%" -T "Title=%title%" -T "Album=%albumtitle%" -T "Date=%year%" -T "Tracknumber=%tracknr%" -T "Comment=%comment%" %source%
TOC извлечённого CD
     Трек |   Старт  | Длительность | Начальный сектор | Конечный сектор
    ---------------------------------------------------------------------
       1  |  0:00.32 |    3:30.30   |          32      |      15811
       2  |  3:30.62 |    3:51.03   |       15812      |      33139
       3  |  7:21.65 |    3:15.45   |       33140      |      47809
       4  | 10:37.35 |    3:19.50   |       47810      |      62784
       5  | 13:57.10 |    3:17.05   |       62785      |      77564
       6  | 17:14.15 |    4:16.22   |       77565      |      96786
       7  | 21:30.37 |    4:04.00   |       96787      |     115086
       8  | 25:34.37 |    3:45.68   |      115087      |     132029
       9  | 29:20.30 |    3:59.65   |      132030      |     150019
      10  | 33:20.20 |    4:39.40   |      150020      |     170984
      11  | 37:59.60 |    3:20.05   |      170985      |     185989
      12  | 41:19.65 |    4:11.07   |      185990      |     204821
Характеристики диапазона извлечения и сообщения об ошибках
Выбранный диапазон
     Имя файла I:\MOI_RAZDACI\Sara Isaksson 1995\Sara.Isaksson_Red.Eden_1995\Sara Isaksson - Red Eden.wav
     Пиковый уровень 100.0 %
     Скорость извлечения 11.7 X
     Качество диапазона 99.9 %
     CRC теста 7B7A6D6D
     CRC копии 7B7A6D6D
     Копирование... OK
Ошибок не произошло
AccurateRip: сводка
Трек  1  отсутствует в базе данных
Трек  2  отсутствует в базе данных
Трек  3  отсутствует в базе данных
Трек  4  отсутствует в базе данных
Трек  5  отсутствует в базе данных
Трек  6  отсутствует в базе данных
Трек  7  отсутствует в базе данных
Трек  8  отсутствует в базе данных
Трек  9  отсутствует в базе данных
Трек 10  отсутствует в базе данных
Трек 11  отсутствует в базе данных
Трек 12  отсутствует в базе данных
Ни одного трека нет в базе AccurateRip
Конец отчёта
---- CUETools DB Plugin V2.1.6
[CTDB TOCID: FPfbzC8IgD2T48VGgsD7Ewskqj8-] found
Submit result: FPfbzC8IgD2T48VGgsD7Ewskqj8- has been confirmed
Track | CTDB Status
  1   | (2/2) Accurately ripped
  2   | (2/2) Accurately ripped
  3   | (2/2) Accurately ripped
  4   | (2/2) Accurately ripped
  5   | (2/2) Accurately ripped
  6   | (2/2) Accurately ripped
  7   | (2/2) Accurately ripped
  8   | (1/2) Accurately ripped, or (1/2) differs in 10 samples @02:34:27
  9   | (2/2) Accurately ripped
 10   | (2/2) Accurately ripped
 11   | (2/2) Accurately ripped
 12   | (1/2) Accurately ripped, or (1/2) differs in 4 samples @02:08:33
==== Контрольная сумма отчёта 154C18FBF46FF846C9300BAE2F9726B21B2EBFC99A9A98FBD9D44F0A85471E90 ====
Код:
REM GENRE Rock
REM DATE 1995
REM DISCID 8F0AAA0C
REM COMMENT "ExactAudioCopy v1.1"
PERFORMER "Sara Isaksson"
TITLE "Red Eden"
FILE "Sara Isaksson - Red Eden.flac" WAVE
  TRACK 01 AUDIO
    TITLE "Occasionally"
    PERFORMER "Sara Isaksson"
    INDEX 00 00:00:00
    INDEX 01 00:00:32
  TRACK 02 AUDIO
    TITLE "May"
    PERFORMER "Sara Isaksson"
    INDEX 01 03:30:62
  TRACK 03 AUDIO
    TITLE "The Man"
    PERFORMER "Sara Isaksson"
    INDEX 00 07:21:23
    INDEX 01 07:21:65
  TRACK 04 AUDIO
    TITLE "To Ashes"
    PERFORMER "Sara Isaksson"
    INDEX 00 10:35:36
    INDEX 01 10:37:35
  TRACK 05 AUDIO
    TITLE "Red Eden"
    PERFORMER "Sara Isaksson"
    INDEX 00 13:57:07
    INDEX 01 13:57:10
  TRACK 06 AUDIO
    TITLE "How Could This Happen"
    PERFORMER "Sara Isaksson"
    INDEX 00 17:14:05
    INDEX 01 17:14:15
  TRACK 07 AUDIO
    TITLE "You're The Sun"
    PERFORMER "Sara Isaksson"
    INDEX 01 21:30:37
  TRACK 08 AUDIO
    TITLE "Cold Blue Heaven"
    PERFORMER "Sara Isaksson"
    INDEX 00 25:33:72
    INDEX 01 25:34:37
  TRACK 09 AUDIO
    TITLE "I'll Arrive"
    PERFORMER "Sara Isaksson"
    INDEX 00 29:20:11
    INDEX 01 29:20:30
  TRACK 10 AUDIO
    TITLE "Walls Came Down"
    PERFORMER "Sara Isaksson"
    INDEX 01 33:20:20
  TRACK 11 AUDIO
    TITLE "The Jackal"
    PERFORMER "Sara Isaksson"
    INDEX 00 37:59:53
    INDEX 01 37:59:60
  TRACK 12 AUDIO
    TITLE "Let It Rain"
    PERFORMER "Sara Isaksson"
    INDEX 01 41:19:65
Код:
-----------------------
DON'T MODIFY THIS FILE
-----------------------
PERFORMER: auCDtect Task Manager, ver. 1.5.1RC6 build 1.5.1.7
Copyright (c) 2008-2010 y-soft. All rights reserved
[url=http://y-soft.org]http://y-soft.org[/url]
ANALYZER: auCDtect: CD records authenticity detector, version 0.8.2
Copyright (c) 2004 Oleg Berngardt. All rights reserved.
Copyright (c) 2004 Alexander Djourik. All rights reserved.
FILE: Sara Isaksson - Red Eden.flac
  Size: 314233282 Hash: 95342EBA7978FF29B684441C5B83794C Accuracy: -m0
  Conclusion: CDDA 100%
  Signature: 687295EDF2C92AAB2FF83DD27AF31F203DA3FEDA
Правила, инструкции, FAQ!!!
Торрент  Добавлен [26 мар 2019, 19:13] Скачать торрент Магнет ссылка
Скачать торрент
[ Размер 12.97 КБ / Просмотров 1 ]

Статус
Проверен 
 
Размер  309.48 МБ
Приватный: Нет (DHT включён)
.torrent скачан  0
 


     Отправить личное сообщение
   
Страница 1 из 1
Показать сообщения за:  Поле сортировки  
Начать новую тему Ответить на тему


Сейчас этот форум просматривают: нет зарегистрированных пользователей и гости: 0


Вы не можете начинать темы
Вы не можете отвечать на сообщения
Вы не можете редактировать свои сообщения
Вы не можете удалять свои сообщения
Вы не можете добавлять вложения

Перейти:  
cron