Начать новую тему Ответить на тему
Статистика раздачи
Размер: 300.42 МБ | Добавлен: 26 мар 2019, 20:51 | Скачали: 1
Сидеров: 0  [0 байт/сек]    Личеров: 0  [0 байт/сек]
Пред. тема | След. тема 

Автор
Сообщение

СообщениеДобавлено: 26 мар 2019, 20:52 

Ответить с цитатой 

Billy Joel / Storm Front (Holland Release)
Жанр: Rock, Pop Rock
Страна-производитель диска: Holland
Год издания диска: 1989
Издатель (лейбл): Columbia
Номер по каталогу: 465658 2
Страна: England
Аудио кодек: FLAC (*.flac)
Тип рипа: image+.cue
Битрейт аудио: lossless
Продолжительность: 44:58
Источник (релизер): Alexpir
Наличие сканов в содержимом раздачи: да
Треклист:

01. That's Not Her Style
02. We Didn't Start The Fire
03. The Downeaster "Alexa"
04. I Go To Extremes
05. Shameless
06. Storm Front
07. Leningrad
08. State Of Grace
09. When In Rome
10. And So It Goes
Код:
Exact Audio Copy V0.99 prebeta 5 from 4. May 2009
Отчёт EAC об извлечении, выполненном 13. ноября 2010, 11:05
Billy Joel / Storm Front
Дисковод: Optiarc DVD RW AD-7585H   Adapter: 0  ID: 1
Режим чтения                 : Достоверность
Использование точного потока : Да
Отключение кэша аудио        : Да
Использование указателей C2  : Нет
Коррекция смещения при чтении                     : 6
Способность читать области Lead-in и Lead-out     : Нет
Заполнение пропущенных сэмплов тишиной            : Да
Удаление блоков с тишиной в начале и конце        : Нет
При вычислениях CRC использовались нулевые сэмплы : Да
Интерфейс                                         : Встроенный Win32-интерфейс для Win NT/2000
Выходной формат : Внутренние WAV-операции
Формат сэмплов  : 44.100 Гц; 16 бит; стерео
TOC извлечённого CD
     Трек |   Старт  | Длительность | Начальный сектор | Конечный сектор
    ---------------------------------------------------------------------
       1  |  0:00.00 |    5:10.10   |           0      |      23259
       2  |  5:10.10 |    4:50.57   |       23260      |      45066
       3  | 10:00.67 |    3:44.65   |       45067      |      61931
       4  | 13:45.57 |    4:23.40   |       61932      |      81696
       5  | 18:09.22 |    4:26.20   |       81697      |     101666
       6  | 22:35.42 |    5:17.20   |      101667      |     125461
       7  | 27:52.62 |    4:06.45   |      125462      |     143956
       8  | 31:59.32 |    4:30.25   |      143957      |     164231
       9  | 36:29.57 |    4:50.10   |      164232      |     185991
      10  | 41:19.67 |    3:38.20   |      185992      |     202361
Характеристики диапазона извлечения и сообщения об ошибках
Выбранный диапазон
     Имя файла C:\Музыка\03.1989 Billy Joel - Storm Front\Billy Joel - Storm Front.wav
     Пиковый уровень 100.0 %
     Качество диапазона 100.0 %
     CRC теста F176BBBC
     CRC копии F176BBBC
     Копирование... OK
Ошибок не произошло
AccurateRip: сводка
Трек  1  точное извлечение (доверие 29)  [956FAC35]
Трек  2  точное извлечение (доверие 29)  [7A7396DF]
Трек  3  точное извлечение (доверие 29)  [6604D242]
Трек  4  точное извлечение (доверие 29)  [01340811]
Трек  5  точное извлечение (доверие 29)  [72D73B37]
Трек  6  точное извлечение (доверие 29)  [35433064]
Трек  7  точное извлечение (доверие 29)  [22D14A25]
Трек  8  точное извлечение (доверие 29)  [1BCB741E]
Трек  9  точное извлечение (доверие 29)  [59154E1F]
Трек 10  точное извлечение (доверие 29)  [9D9C9FC8]
Все треки извлечены точно
Конец отчёта
Правила, инструкции, FAQ!!!
Торрент  Добавлен [26 мар 2019, 20:51] Скачать торрент Магнет ссылка
Скачать торрент
[ Размер 12.71 КБ / Просмотров 1 ]

Статус
Проверен 
 
Размер  300.42 МБ
Приватный: Нет (DHT включён)
.torrent скачан  1
 


     Отправить личное сообщение
   
Страница 1 из 1
Показать сообщения за:  Поле сортировки  
Начать новую тему Ответить на тему


Сейчас этот форум просматривают: нет зарегистрированных пользователей и гости: 0


Вы не можете начинать темы
Вы не можете отвечать на сообщения
Вы не можете редактировать свои сообщения
Вы не можете удалять свои сообщения
Вы не можете добавлять вложения

Перейти:  
cron