Начать новую тему Ответить на тему
Статистика раздачи
Размер: 3.59 ГБ | Добавлен: 13 июл 2020, 05:29 | Скачали: 0
Сидеров: 0  [0 байт/сек]    Личеров: 0  [0 байт/сек]
Пред. тема | След. тема 

Автор
Сообщение

СообщениеДобавлено: 13 июл 2020, 05:29 

Ответить с цитатой 

John Porter - "WHY ?" 12 CD BOX(Antologia)


Жанр: Rock, Pop-Rock, Acoustic Rock
Год выпуска диска: 2007
Производитель диска: Poland , Metal Mind Productions(Номер по каталогу.: MMP 12 CD BOX 001)
Аудио кодек: APE
Тип рипа: image+.cue
Битрейт аудио: lossless
Продолжительность: 09:45:39
Источник: kpnemo.ws/
Треклист:
01.- Ain't Got My Music [03:36]
02.- Northen Winds [04:25]
03.- Helicopters [04:02]
04.- Garage [03:05]
05.- Refill [03:22]
06.- Life [05:48]
07.- I'm Just A Singer [03:31]
08.- Crazy, Crazy, Crazy [04:52]
09.- NewYorkiCity [04:02]
10.- Freezy Everybody [02:09]
11.- Brave Gun [04:20]
12.- Fixin' [05:21]
13.- Aggresion [03:30]
Exact Audio Copy V0.99 prebeta 5 from 4. May 2009
Отчёт EAC об извлечении, выполненном 26. октября 2009, 18:14
Porter Band / Helicopters
Дисковод: Optiarc BD ROM BC-5500S Adapter: 0 ID: 1
Режим чтения : Достоверность
Использование точного потока : Да
Отключение кэша аудио : Нет
Использование указателей C2 : Нет
Коррекция смещения при чтении : 48
Способность читать области Lead-in и Lead-out : Да
Заполнение пропущенных сэмплов тишиной : Да
Удаление блоков с тишиной в начале и конце : Нет
При вычислениях CRC использовались нулевые сэмплы : Нет
Интерфейс : Встроенный Win32-интерфейс для Win NT/2000
Выходной формат : Внутренние WAV-операции
Формат сэмплов : 44.100 Гц; 16 бит; стерео
TOC извлечённого CD
Трек | Старт | Длительность | Начальный сектор | Конечный сектор
---------------------------------------------------------------------
1 | 0:00.00 | 3:37.00 | 0 | 16274
2 | 3:37.00 | 4:26.00 | 16275 | 36224
3 | 8:03.00 | 4:03.00 | 36225 | 54449
4 | 12:06.00 | 3:06.00 | 54450 | 68399
5 | 15:12.00 | 3:23.00 | 68400 | 83624
6 | 18:35.00 | 5:49.00 | 83625 | 109799
7 | 24:24.00 | 3:32.00 | 109800 | 125699
8 | 27:56.00 | 4:53.00 | 125700 | 147674
9 | 32:49.00 | 4:03.00 | 147675 | 165899
10 | 36:52.00 | 2:10.00 | 165900 | 175649
11 | 39:02.00 | 4:21.00 | 175650 | 195224
12 | 43:23.00 | 5:22.00 | 195225 | 219374
13 | 48:45.00 | 3:31.00 | 219375 | 235199
Характеристики диапазона извлечения и сообщения об ошибках
Выбранный диапазон
Имя файла D:\Porter Band - Helicopters.wav
Пиковый уровень 98.7 %
Качество диапазона 99.9 %
CRC теста E8CD1301
CRC копии E8CD1301
Копирование... OK
Ошибок не произошло
Конец отчёта
#77701.- Professional [04:07]
02.- Heavy Traffic [04:00]
03.- Mobilization [03:28]
04.- Caravana [03:37]
05.- Oh! These Depressions [04:50]
06.- Pogolowie 999 [03:18]
07.- Climate [02:13]
08.- Tell You No Lie [06:41]
09.- (I'm Not) Perfect [03:33]
10.- Burning [04:01]
Exact Audio Copy V0.99 prebeta 5 from 4. May 2009
Отчёт EAC об извлечении, выполненном 26. октября 2009, 19:55
Porter Band / Mobilization (Live)
Дисковод: Optiarc BD ROM BC-5500S Adapter: 0 ID: 1
Режим чтения : Достоверность
Использование точного потока : Да
Отключение кэша аудио : Нет
Использование указателей C2 : Нет
Коррекция смещения при чтении : 48
Способность читать области Lead-in и Lead-out : Да
Заполнение пропущенных сэмплов тишиной : Да
Удаление блоков с тишиной в начале и конце : Нет
При вычислениях CRC использовались нулевые сэмплы : Нет
Интерфейс : Встроенный Win32-интерфейс для Win NT/2000
Выходной формат : Внутренние WAV-операции
Формат сэмплов : 44.100 Гц; 16 бит; стерео
TOC извлечённого CD
Трек | Старт | Длительность | Начальный сектор | Конечный сектор
---------------------------------------------------------------------
1 | 0:00.00 | 4:07.51 | 0 | 18575
2 | 4:07.51 | 4:00.54 | 18576 | 36629
3 | 8:08.30 | 3:28.43 | 36630 | 52272
4 | 11:36.73 | 3:37.62 | 52273 | 68609
5 | 15:14.60 | 4:50.66 | 68610 | 90425
6 | 20:05.51 | 3:18.41 | 90426 | 105316
7 | 23:24.17 | 2:13.57 | 105317 | 115348
8 | 25:37.74 | 6:41.12 | 115349 | 145435
9 | 32:19.11 | 3:33.16 | 145436 | 161426
10 | 35:52.27 | 4:01.53 | 161427 | 179554
Характеристики диапазона извлечения и сообщения об ошибках
Выбранный диапазон
Имя файла D:\Porter Band - Mobilization (Live).wav
Подозрительная позиция 0:39:53
Пиковый уровень 98.7 %
Качество диапазона 99.9 %
CRC теста 58579605
CRC копии 58579605
Копирование завершено
Были ошибки
Конец отчёта
#77701.- So What [05:19]
02.- Dogs [04:12]
03.- Selling Water by the river [04:33]
04.- Blue [04:11]
05.- Certain people [03:44]
06.- Cigarettes [05:26]
07.- Sun [03:55]
08.- China Disco [05:15]
Exact Audio Copy V0.99 prebeta 4 from 23. January 2008
Отчёт EAC об извлечении, выполненном 26. октября 2009, 21:00
Porter / China Disco
Дисковод: Optiarc DVD RW AD-7203A Adapter: 0 ID: 0
Режим чтения : Достоверность
Использование точного потока : Да
Отключение кэша аудио : Нет
Использование указателей C2 : Да
Коррекция смещения при чтении : 48
Способность читать области Lead-in и Lead-out : Нет
Заполнение пропущенных сэмплов тишиной : Да
Удаление блоков с тишиной в начале и конце : Нет
При вычислениях CRC использовались нулевые сэмплы : Нет
Интерфейс : Установленный внешний ASPI-интерфейс
Выходной формат : Внутренние WAV-операции
Формат сэмплов : 44.100 Гц; 16 бит; стерео
TOC извлечённого CD
Трек | Старт | Длительность | Начальный сектор | Конечный сектор
---------------------------------------------------------------------
1 | 0:00.00 | 5:20.00 | 0 | 23999
2 | 5:20.00 | 4:13.00 | 24000 | 42974
3 | 9:33.00 | 4:34.00 | 42975 | 63524
4 | 14:07.00 | 4:12.00 | 63525 | 82424
5 | 18:19.00 | 3:45.00 | 82425 | 99299
6 | 22:04.00 | 5:26.66 | 99300 | 123815
7 | 27:30.66 | 3:55.16 | 123816 | 141456
8 | 31:26.07 | 5:16.00 | 141457 | 165156
Характеристики диапазона извлечения и сообщения об ошибках
Выбранный диапазон
Имя файла F:\Porter - China Disco.wav
Пиковый уровень 98.7 %
Качество диапазона 100.0 %
CRC теста 3BD6EE31
CRC копии 3BD6EE31
Копирование... OK
Ошибок не произошло
Конец отчёта
#77701.- Caravana Lover [04:35]
02.- Too Much Trouble [04:28]
03.- Magic Moments [05:45]
04.- Not Standing, Not Dancing [04:26]
05.- Still In Warsaw [07:49]
06.- Faces And Waves [05:01]
07.- Stoned Livin' [04:02]
08.- I'm Just A Singer [04:45]
Exact Audio Copy V0.99 prebeta 5 from 4. May 2009
Отчёт EAC об извлечении, выполненном 26. октября 2009, 21:20
John Porter / Magic Moments
Дисковод: Optiarc BD ROM BC-5500S Adapter: 0 ID: 1
Режим чтения : Достоверность
Использование точного потока : Да
Отключение кэша аудио : Нет
Использование указателей C2 : Нет
Коррекция смещения при чтении : 48
Способность читать области Lead-in и Lead-out : Да
Заполнение пропущенных сэмплов тишиной : Да
Удаление блоков с тишиной в начале и конце : Нет
При вычислениях CRC использовались нулевые сэмплы : Нет
Интерфейс : Встроенный Win32-интерфейс для Win NT/2000
Выходной формат : Внутренние WAV-операции
Формат сэмплов : 44.100 Гц; 16 бит; стерео
TOC извлечённого CD
Трек | Старт | Длительность | Начальный сектор | Конечный сектор
---------------------------------------------------------------------
1 | 0:00.00 | 4:35.68 | 0 | 20692
2 | 4:35.68 | 4:28.45 | 20693 | 40837
3 | 9:04.38 | 5:45.59 | 40838 | 66771
4 | 14:50.22 | 4:26.31 | 66772 | 86752
5 | 19:16.53 | 7:49.42 | 86753 | 121969
6 | 27:06.20 | 5:01.30 | 121970 | 144574
7 | 32:07.50 | 4:02.16 | 144575 | 162740
8 | 36:09.66 | 4:45.10 | 162741 | 184125
Характеристики диапазона извлечения и сообщения об ошибках
Выбранный диапазон
Имя файла D:\John Porter - Magic Moments.wav
Пиковый уровень 98.7 %
Качество диапазона 100.0 %
CRC теста ABACBF36
CRC копии ABACBF36
Копирование... OK
Ошибок не произошло
Конец отчёта
#77701.- Everlasting Madness [04:42]
02.- Slaughterhouse [04:21]
03.- One Love [05:57]
04.- Born [04:25]
05.- Hit The Mystery [03:53]
06.- Winter Dream [07:54]
07.- Romeo [05:58]
08.- River And A Bridge [04:33]
09.- Come Home [06:04]
Exact Audio Copy V0.99 prebeta 4 from 23. January 2008
Отчёт EAC об извлечении, выполненном 26. октября 2009, 22:33
John Porter / One Love
Дисковод: Optiarc DVD RW AD-7203A Adapter: 0 ID: 0
Режим чтения : Достоверность
Использование точного потока : Да
Отключение кэша аудио : Нет
Использование указателей C2 : Да
Коррекция смещения при чтении : 48
Способность читать области Lead-in и Lead-out : Нет
Заполнение пропущенных сэмплов тишиной : Да
Удаление блоков с тишиной в начале и конце : Нет
При вычислениях CRC использовались нулевые сэмплы : Нет
Интерфейс : Установленный внешний ASPI-интерфейс
Выходной формат : Внутренние WAV-операции
Формат сэмплов : 44.100 Гц; 16 бит; стерео
TOC извлечённого CD
Трек | Старт | Длительность | Начальный сектор | Конечный сектор
---------------------------------------------------------------------
1 | 0:00.00 | 4:42.41 | 0 | 21190
2 | 4:42.41 | 4:21.22 | 21191 | 40787
3 | 9:03.63 | 5:57.49 | 40788 | 67611
4 | 15:01.37 | 4:25.15 | 67612 | 87501
5 | 19:26.52 | 3:53.58 | 87502 | 105034
6 | 23:20.35 | 7:54.08 | 105035 | 140592
7 | 31:14.43 | 5:58.61 | 140593 | 167503
8 | 37:13.29 | 4:33.22 | 167504 | 188000
9 | 41:46.51 | 6:04.14 | 188001 | 215314
Характеристики диапазона извлечения и сообщения об ошибках
Выбранный диапазон
Имя файла F:\John Porter - One Love.wav
Пиковый уровень 98.7 %
Качество диапазона 100.0 %
CRC теста 912C8CA0
CRC копии 912C8CA0
Копирование... OK
Ошибок не произошло
Конец отчёта
#77701.- Running [03:51]
02.- Never ever [05:14]
03.- Kiss me [05:52]
04.- Sabaha! [04:31]
05.- Something born/die [03:57]
06.- Dirty young girl [02:57]
07.- Nothing's forever [04:09]
08.- Wings inside [04:32]
09.- Cut [03:35]
10.- Tough enough [05:40]
11.- Cry imagination [04:34]
Exact Audio Copy V0.99 prebeta 4 from 23. January 2008
Отчёт EAC об извлечении, выполненном 26. октября 2009, 21:11
John Porter / Wings Inside
Дисковод: Optiarc DVD RW AD-7203A Adapter: 0 ID: 0
Режим чтения : Достоверность
Использование точного потока : Да
Отключение кэша аудио : Нет
Использование указателей C2 : Да
Коррекция смещения при чтении : 48
Способность читать области Lead-in и Lead-out : Нет
Заполнение пропущенных сэмплов тишиной : Да
Удаление блоков с тишиной в начале и конце : Нет
При вычислениях CRC использовались нулевые сэмплы : Нет
Интерфейс : Установленный внешний ASPI-интерфейс
Выходной формат : Внутренние WAV-операции
Формат сэмплов : 44.100 Гц; 16 бит; стерео
TOC извлечённого CD
Трек | Старт | Длительность | Начальный сектор | Конечный сектор
---------------------------------------------------------------------
1 | 0:00.00 | 3:52.00 | 0 | 17399
2 | 3:52.00 | 5:15.00 | 17400 | 41024
3 | 9:07.00 | 5:53.00 | 41025 | 67499
4 | 15:00.00 | 4:32.00 | 67500 | 87899
5 | 19:32.00 | 3:58.00 | 87900 | 105749
6 | 23:30.00 | 2:58.00 | 105750 | 119099
7 | 26:28.00 | 4:09.66 | 119100 | 137840
8 | 30:37.66 | 4:33.00 | 137841 | 158315
9 | 35:10.66 | 3:36.00 | 158316 | 174515
10 | 38:46.66 | 5:41.00 | 174516 | 200090
11 | 44:27.66 | 4:35.00 | 200091 | 220715
Характеристики диапазона извлечения и сообщения об ошибках
Выбранный диапазон
Имя файла F:\John Porter - Wings Inside.wav
Пиковый уровень 98.7 %
Качество диапазона 100.0 %
CRC теста 7FEE2F76
CRC копии 7FEE2F76
Копирование... OK
Ошибок не произошло
Конец отчёта
#77701.- One Million Songs Of Sadness [04:08]
02.- In A War [05:33]
03.- One Out Of Two [03:53]
04.- Too Dumb [03:42]
05.- World Apart (Desire And Death) [04:08]
06.- Junkyard Girl [06:41]
07.- Surgeon [05:39]
08.- The Music [06:21]
09.- Off The Wall [03:25]
10.- Key [05:48]
11.- Rubbish Song [03:03]
12.- Brave Gun [06:41]
Exact Audio Copy V0.99 prebeta 4 from 23. January 2008
Отчёт EAC об извлечении, выполненном 26. октября 2009, 21:25
John Porter / Incarnation
Дисковод: Optiarc DVD RW AD-7203A Adapter: 0 ID: 0
Режим чтения : Достоверность
Использование точного потока : Да
Отключение кэша аудио : Нет
Использование указателей C2 : Да
Коррекция смещения при чтении : 48
Способность читать области Lead-in и Lead-out : Нет
Заполнение пропущенных сэмплов тишиной : Да
Удаление блоков с тишиной в начале и конце : Нет
При вычислениях CRC использовались нулевые сэмплы : Нет
Интерфейс : Установленный внешний ASPI-интерфейс
Выходной формат : Внутренние WAV-операции
Формат сэмплов : 44.100 Гц; 16 бит; стерео
TOC извлечённого CD
Трек | Старт | Длительность | Начальный сектор | Конечный сектор
---------------------------------------------------------------------
1 | 0:00.00 | 4:09.00 | 0 | 18674
2 | 4:09.00 | 5:34.00 | 18675 | 43724
3 | 9:43.00 | 3:54.00 | 43725 | 61274
4 | 13:37.00 | 3:43.00 | 61275 | 77999
5 | 17:20.00 | 4:09.00 | 78000 | 96674
6 | 21:29.00 | 6:42.00 | 96675 | 126824
7 | 28:11.00 | 5:40.00 | 126825 | 152324
8 | 33:51.00 | 6:22.00 | 152325 | 180974
9 | 40:13.00 | 3:26.00 | 180975 | 196424
10 | 43:39.00 | 5:49.00 | 196425 | 222599
11 | 49:28.00 | 3:04.00 | 222600 | 236399
12 | 52:32.00 | 6:42.00 | 236400 | 266549
Характеристики диапазона извлечения и сообщения об ошибках
Выбранный диапазон
Имя файла F:\John Porter - Incarnation.wav
Пиковый уровень 98.7 %
Качество диапазона 100.0 %
CRC теста 0F6345BF
CRC копии 0F6345BF
Копирование... OK
Ошибок не произошло
Конец отчёта
#77701.- Waterfall [04:05]
02.- Naked [05:10]
03.- Running Out Of Time [04:31]
04.- Right Time [04:33]
05.- Love And Suffering [06:12]
06.- Fading Away [09:22]
07.- Valley (Of The Sublime) [07:25]
08.- Crowded Room [03:49]
Exact Audio Copy V0.99 prebeta 4 from 23. January 2008
Отчёт EAC об извлечении, выполненном 26. октября 2009, 22:18
John Porter / Right Time
Дисковод: Optiarc DVD RW AD-7203A Adapter: 0 ID: 0
Режим чтения : Достоверность
Использование точного потока : Да
Отключение кэша аудио : Нет
Использование указателей C2 : Да
Коррекция смещения при чтении : 48
Способность читать области Lead-in и Lead-out : Нет
Заполнение пропущенных сэмплов тишиной : Да
Удаление блоков с тишиной в начале и конце : Нет
При вычислениях CRC использовались нулевые сэмплы : Нет
Интерфейс : Установленный внешний ASPI-интерфейс
Выходной формат : Внутренние WAV-операции
Формат сэмплов : 44.100 Гц; 16 бит; стерео
TOC извлечённого CD
Трек | Старт | Длительность | Начальный сектор | Конечный сектор
---------------------------------------------------------------------
1 | 0:00.00 | 4:06.00 | 0 | 18449
2 | 4:06.00 | 5:11.00 | 18450 | 41774
3 | 9:17.00 | 4:32.00 | 41775 | 62174
4 | 13:49.00 | 4:34.00 | 62175 | 82724
5 | 18:23.00 | 6:13.00 | 82725 | 110699
6 | 24:36.00 | 9:23.00 | 110700 | 152924
7 | 33:59.00 | 7:26.00 | 152925 | 186374
8 | 41:25.00 | 3:49.57 | 186375 | 203606
Характеристики диапазона извлечения и сообщения об ошибках
Выбранный диапазон
Имя файла F:\John Porter - Right Time.wav
Пиковый уровень 99.1 %
Качество диапазона 100.0 %
CRC теста 03D38925
CRC копии 03D38925
Копирование... OK
Ошибок не произошло
Конец отчёта
#77701.- Suicide Bridge [05:06]
02.- Alexandria [04:11]
03.- Run, Run [04:55]
04.- Paradise [03:52]
05.- Inside Your Dream [03:32]
06.- Lover [04:50]
07.- Electric Feeling [04:00]
08.- Slave [04:20]
09.- Long-haired girls in their tig [06:58]
10.- Better then Living [03:01]
Exact Audio Copy V0.99 prebeta 4 from 23. January 2008
Отчёт EAC об извлечении, выполненном 26. октября 2009, 22:53
John Porter Band / Alexandria
Дисковод: Optiarc DVD RW AD-7203A Adapter: 0 ID: 0
Режим чтения : Достоверность
Использование точного потока : Да
Отключение кэша аудио : Нет
Использование указателей C2 : Да
Коррекция смещения при чтении : 48
Способность читать области Lead-in и Lead-out : Нет
Заполнение пропущенных сэмплов тишиной : Да
Удаление блоков с тишиной в начале и конце : Нет
При вычислениях CRC использовались нулевые сэмплы : Нет
Интерфейс : Установленный внешний ASPI-интерфейс
Выходной формат : Внутренние WAV-операции
Формат сэмплов : 44.100 Гц; 16 бит; стерео
TOC извлечённого CD
Трек | Старт | Длительность | Начальный сектор | Конечный сектор
---------------------------------------------------------------------
1 | 0:00.00 | 5:07.00 | 0 | 23024
2 | 5:07.00 | 4:12.00 | 23025 | 41924
3 | 9:19.00 | 4:56.00 | 41925 | 64124
4 | 14:15.00 | 3:53.00 | 64125 | 81599
5 | 18:08.00 | 3:33.00 | 81600 | 97574
6 | 21:41.00 | 4:51.00 | 97575 | 119399
7 | 26:32.00 | 4:01.00 | 119400 | 137474
8 | 30:33.00 | 4:21.00 | 137475 | 157049
9 | 34:54.00 | 6:59.00 | 157050 | 188474
10 | 41:53.00 | 3:02.00 | 188475 | 202124
Характеристики диапазона извлечения и сообщения об ошибках
Выбранный диапазон
Имя файла F:\John Porter Band - Alexandria.wav
Пиковый уровень 98.7 %
Качество диапазона 100.0 %
CRC теста 330226D5
CRC копии 330226D5
Копирование... OK
Ошибок не произошло
Конец отчёта
#77701.- Leather Skirt [03:08]
02.- Seasons [02:59]
03.- Nothing Better... [05:07]
04.- Seven Ate Nine [04:20]
05.- Love Stains [02:46]
06.- Am I Dreaming? [03:47]
07.- Kiss Your Pain [05:02]
08.- Long Way [03:35]
09.- Help Me, Help Me [02:54]
10.- Fire Escape [05:12]
11.- The Love? [04:07]
12.- Friction [05:34]
13.- Red Sun Road [05:04]
Exact Audio Copy V0.99 prebeta 4 from 23. January 2008
Отчёт EAC об извлечении, выполненном 26. октября 2009, 21:18
Porter Band / Porter Band '99
Дисковод: Optiarc DVD RW AD-7203A Adapter: 0 ID: 0
Режим чтения : Достоверность
Использование точного потока : Да
Отключение кэша аудио : Нет
Использование указателей C2 : Да
Коррекция смещения при чтении : 48
Способность читать области Lead-in и Lead-out : Нет
Заполнение пропущенных сэмплов тишиной : Да
Удаление блоков с тишиной в начале и конце : Нет
При вычислениях CRC использовались нулевые сэмплы : Нет
Интерфейс : Установленный внешний ASPI-интерфейс
Выходной формат : Внутренние WAV-операции
Формат сэмплов : 44.100 Гц; 16 бит; стерео
TOC извлечённого CD
Трек | Старт | Длительность | Начальный сектор | Конечный сектор
---------------------------------------------------------------------
1 | 0:00.00 | 3:09.00 | 0 | 14174
2 | 3:09.00 | 3:00.00 | 14175 | 27674
3 | 6:09.00 | 5:07.23 | 27675 | 50722
4 | 11:16.23 | 4:20.53 | 50723 | 70275
5 | 15:37.01 | 2:47.00 | 70276 | 82800
6 | 18:24.01 | 3:48.00 | 82801 | 99900
7 | 22:12.01 | 5:03.00 | 99901 | 122625
8 | 27:15.01 | 3:36.00 | 122626 | 138825
9 | 30:51.01 | 2:55.00 | 138826 | 151950
10 | 33:46.01 | 5:13.00 | 151951 | 175425
11 | 38:59.01 | 4:08.00 | 175426 | 194025
12 | 43:07.01 | 5:35.00 | 194026 | 219150
13 | 48:42.01 | 5:05.00 | 219151 | 242025
Характеристики диапазона извлечения и сообщения об ошибках
Выбранный диапазон
Имя файла F:\Porter Band - Porter Band '99.wav
Пиковый уровень 98.9 %
Качество диапазона 100.0 %
CRC теста 19465D40
CRC копии 19465D40
Копирование... OK
Ошибок не произошло
Конец отчёта
#77701.- Suicide Bridge [05:12]
02.- Leather Skirt [03:08]
03.- One Day (o wampirach energii) [03:44]
04.- Northern Winds [03:43]
05.- The Love [02:55]
06.- Pogotowie 999 (pielegniarki i [02:55]
07.- Crazy, Crazy, Crazy [05:23]
08.- Aint Got My Music [04:08]
09.- Heavy Traffic [03:17]
10.- Help Me, Help Me [05:31]
11.- Fixin' [02:27]
12.- Kiss Your Pain [05:09]
13.- Refill [07:05]
14.- I'm Just A Singer [07:04]
15.- How I Want You [03:37]
Exact Audio Copy V0.99 prebeta 4 from 23. January 2008
Отчёт EAC об извлечении, выполненном 26. октября 2009, 22:27
Porter Band / Electric
Дисковод: Optiarc DVD RW AD-7203A Adapter: 0 ID: 0
Режим чтения : Достоверность
Использование точного потока : Да
Отключение кэша аудио : Нет
Использование указателей C2 : Да
Коррекция смещения при чтении : 48
Способность читать области Lead-in и Lead-out : Нет
Заполнение пропущенных сэмплов тишиной : Да
Удаление блоков с тишиной в начале и конце : Нет
При вычислениях CRC использовались нулевые сэмплы : Нет
Интерфейс : Установленный внешний ASPI-интерфейс
Выходной формат : Внутренние WAV-операции
Формат сэмплов : 44.100 Гц; 16 бит; стерео
TOC извлечённого CD
Трек | Старт | Длительность | Начальный сектор | Конечный сектор
---------------------------------------------------------------------
1 | 0:00.00 | 5:12.18 | 0 | 23417
2 | 5:12.18 | 3:08.52 | 23418 | 37569
3 | 8:20.70 | 3:44.43 | 37570 | 54412
4 | 12:05.38 | 3:43.25 | 54413 | 71162
5 | 15:48.63 | 2:56.00 | 71163 | 84362
6 | 18:44.63 | 2:55.10 | 84363 | 97497
7 | 21:39.73 | 5:23.16 | 97498 | 121738
8 | 27:03.14 | 4:08.29 | 121739 | 140367
9 | 31:11.43 | 3:18.03 | 140368 | 155220
10 | 34:29.46 | 5:31.42 | 155221 | 180087
11 | 40:01.13 | 2:28.03 | 180088 | 191190
12 | 42:29.16 | 5:09.38 | 191191 | 214403
13 | 47:38.54 | 7:05.12 | 214404 | 246290
14 | 54:43.66 | 7:04.10 | 246291 | 278100
15 | 61:48.01 | 3:38.00 | 278101 | 294450
Характеристики диапазона извлечения и сообщения об ошибках
Выбранный диапазон
Имя файла F:\Porter Band - Electric.wav
Пиковый уровень 99.2 %
Качество диапазона 100.0 %
CRC теста F0D3FC36
CRC копии F0D3FC36
Копирование... OK
Ошибок не произошло
Конец отчёта
#77701.- Cataract [04:43]
02.- Drive Me [02:41]
03.- For You (with Anita Lipnicka) [03:55]
04.- Who's Fooling You? [04:00]
05.- Memphis (The Journey to) [04:48]
06.- Hamburger Man [05:10]
07.- She's A Shaker [03:59]
08.- Hate, Love, War? [03:31]
09.- Missing A Friend [03:49]
10.- A Story (Your Fire) [04:01]
11.- A Sexual Situation [03:29]
12.- Let Your Passion? [03:53]
13.- Valentina (radio edit) [02:28]
Exact Audio Copy V0.99 prebeta 4 from 23. January 2008
Отчёт EAC об извлечении, выполненном 26. октября 2009, 22:12
John Porter Band / Psychodelikatesy
Дисковод: Optiarc DVD RW AD-7203A Adapter: 0 ID: 0
Режим чтения : Достоверность
Использование точного потока : Да
Отключение кэша аудио : Нет
Использование указателей C2 : Да
Коррекция смещения при чтении : 48
Способность читать области Lead-in и Lead-out : Нет
Заполнение пропущенных сэмплов тишиной : Да
Удаление блоков с тишиной в начале и конце : Нет
При вычислениях CRC использовались нулевые сэмплы : Нет
Интерфейс : Установленный внешний ASPI-интерфейс
Выходной формат : Внутренние WAV-операции
Формат сэмплов : 44.100 Гц; 16 бит; стерео
TOC извлечённого CD
Трек | Старт | Длительность | Начальный сектор | Конечный сектор
---------------------------------------------------------------------
1 | 0:00.00 | 4:43.12 | 0 | 21236
2 | 4:43.12 | 2:41.31 | 21237 | 33342
3 | 7:24.43 | 3:55.46 | 33343 | 51013
4 | 11:20.14 | 4:00.67 | 51014 | 69080
5 | 15:21.06 | 4:48.23 | 69081 | 90703
6 | 20:09.29 | 5:10.69 | 90704 | 114022
7 | 25:20.23 | 3:59.19 | 114023 | 131966
8 | 29:19.42 | 3:31.60 | 131967 | 147851
9 | 32:51.27 | 3:49.62 | 147852 | 165088
10 | 36:41.14 | 4:01.09 | 165089 | 183172
11 | 40:42.23 | 3:30.01 | 183173 | 198923
12 | 44:12.24 | 3:53.09 | 198924 | 216407
13 | 48:05.33 | 2:28.23 | 216408 | 227530
Характеристики диапазона извлечения и сообщения об ошибках
Выбранный диапазон
Имя файла F:\John Porter Band - Psychodelikatesy.wav
Пиковый уровень 98.9 %
Качество диапазона 100.0 %
CRC теста BD49BAB6
CRC копии BD49BAB6
Копирование... OK
Ошибок не произошло
Конец отчёта
John Porter - 20 альбомов в МР3
Discogs[/spoiler]YouTube[/spoiler]
Огромная Благодарность выражается Antiquar'у
Правила, инструкции, FAQ!!!
Торрент  Добавлен [13 июл 2020, 05:29] Скачать торрент Магнет ссылка
Скачать торрент
[ Размер 25.42 КБ / Просмотров 2 ]

Статус
Проверен 
 
Размер  3.59 ГБ
Приватный: Нет (DHT включён)
.torrent скачан  0
 


     Отправить личное сообщение
   
Страница 1 из 1
Показать сообщения за:  Поле сортировки  
Начать новую тему Ответить на тему


Сейчас этот форум просматривают: нет зарегистрированных пользователей и гости: 0


Вы не можете начинать темы
Вы не можете отвечать на сообщения
Вы не можете редактировать свои сообщения
Вы не можете удалять свои сообщения
Вы не можете добавлять вложения

Перейти:  
cron