Начать новую тему Ответить на тему
Статистика раздачи
Размер: 207.02 МБ | Добавлен: 26 мар 2019, 20:37 | Скачали: 0
Сидеров: 0  [0 байт/сек]    Личеров: 0  [0 байт/сек]
Пред. тема | След. тема 

Автор
Сообщение

СообщениеДобавлено: 26 мар 2019, 20:37 

Ответить с цитатой 

Rino Gaetano - Aida
Жанр: Rock, Pop
Носитель: CD
Страна-производитель диска (релиза): EU
Год издания: 1994
Издатель (лейбл): RCA
Номер по каталогу: 74321-14969-2
Страна исполнителя (группы): Italy
Аудиокодек: FLAC (*.flac)
Тип рипа: image+.cue
Битрейт аудио: lossless
Продолжительность: 00:29:56
Источник (релизер): Unknown
Наличие сканов в содержимом раздачи: да
Треклист:
1. Aida – 4:22
2. Fontana chiara – 2:26
3. Spendi spandi effendi – 3:59
4. Sei ottavi – 3:17 – la voce femminile è di Marina Arcangeli, all'epoca cantante nella Schola Cantorum
5. Escluso il cane – 4:17
6. La festa di Maria – 2:46
7. Rare tracce – 2:50
8. Standard – 1:50
9. OK papà – 3:43
Код:
Exact Audio Copy V0.99 prebeta 4 from 23. January 2008
EAC extraction logfile from 6. June 2008, 16:49
Rino Gaetano / Aida
Used drive  : HL-DT-STDVD-RW GWA-4080N   Adapter: 1  ID: 0
Read mode               : Secure
Utilize accurate stream : Yes
Defeat audio cache      : Yes
Make use of C2 pointers : No
Read offset correction                      : 667
Overread into Lead-In and Lead-Out          : No
Fill up missing offset samples with silence : Yes
Delete leading and trailing silent blocks   : No
Null samples used in CRC calculations       : Yes
Used interface                              : Installed external ASPI interface
Gap handling                                : Appended to previous track
Used output format              : User Defined Encoder
Selected bitrate                : 768 kBit/s
Quality                         : High
Add ID3 tag                     : No
Command line compressor         : C:\Programmi\FLAC\flac.exe
Additional command line options : -8 -V -T "ARTIST=%a" -T "TITLE=%t" -T "ALBUM=%g" -T "DATE=%y" -T "TRACKNUMBER=%n" -T "GENRE=%m" -T "COMMENT=%e" %s -o %d
TOC of the extracted CD
     Track |   Start  |  Length  | Start sector | End sector
    ---------------------------------------------------------
        1  |  0:00.33 |  4:25.37 |        33    |    19944
        2  |  4:25.70 |  2:29.38 |     19945    |    31157
        3  |  6:55.33 |  4:01.37 |     31158    |    49269
        4  | 10:56.70 |  3:19.65 |     49270    |    64259
        5  | 14:16.60 |  4:21.03 |     64260    |    83837
        6  | 18:37.63 |  2:50.50 |     83838    |    96637
        7  | 21:28.38 |  2:54.35 |     96638    |   109722
        8  | 24:22.73 |  1:50.47 |    109723    |   118019
        9  | 26:13.45 |  3:42.73 |    118020    |   134742
Track  1
     Filename D:\CDARip\01 - Aida.wav
     Pre-gap length  0:00:02.33
     Peak level 94.9 %
     Track quality 100.0 %
     Test CRC C94F99E4
     Copy CRC C94F99E4
     Track not present in AccurateRip database
     Copy OK
Track  2
     Filename D:\CDARip\02 - Fontana Chiara.wav
     Peak level 87.2 %
     Track quality 100.0 %
     Test CRC 41A95E1B
     Copy CRC 41A95E1B
     Track not present in AccurateRip database
     Copy OK
Track  3
     Filename D:\CDARip\03 - Spendi Spandi Effendi.wav
     Peak level 95.9 %
     Track quality 100.0 %
     Test CRC AA083E88
     Copy CRC AA083E88
     Track not present in AccurateRip database
     Copy OK
Track  4
     Filename D:\CDARip\04 - Sei Ottavi.wav
     Peak level 91.1 %
     Track quality 100.0 %
     Test CRC 996873EB
     Copy CRC 996873EB
     Track not present in AccurateRip database
     Copy OK
Track  5
     Filename D:\CDARip\05 - Escluso Il Cane.wav
     Peak level 91.7 %
     Track quality 100.0 %
     Test CRC 72133B04
     Copy CRC 72133B04
     Track not present in AccurateRip database
     Copy OK
Track  6
     Filename D:\CDARip\06 - La Festa Di Maria.wav
     Peak level 92.2 %
     Track quality 99.9 %
     Test CRC AC494DB5
     Copy CRC AC494DB5
     Track not present in AccurateRip database
     Copy OK
Track  7
     Filename D:\CDARip\07 - Rare Tracce.wav
     Peak level 100.0 %
     Track quality 100.0 %
     Test CRC 6416BCE4
     Copy CRC 6416BCE4
     Track not present in AccurateRip database
     Copy OK
Track  8
     Filename D:\CDARip\08 - Standard.wav
     Peak level 91.3 %
     Track quality 100.0 %
     Test CRC E04528F9
     Copy CRC E04528F9
     Track not present in AccurateRip database
     Copy OK
Track  9
     Filename D:\CDARip\09 - Ok Papà.wav
     Peak level 89.0 %
     Track quality 100.0 %
     Test CRC 62EFB60E
     Copy CRC 62EFB60E
     Track not present in AccurateRip database
     Copy OK
None of the tracks are present in the AccurateRip database
No errors occurred
End of status report
Код:
REM GENRE "Pop It"
REM DATE 1977
REM DISCID 7E070409
REM COMMENT "ExactAudioCopy v0.99pb4"
CATALOG 0743211496926
PERFORMER "Rino Gaetano"
TITLE "Aida"
FILE "01 - Aida.wav" WAVE
  TRACK 01 AUDIO
    TITLE "Aida"
    PERFORMER "Rino Gaetano"
    ISRC ITB008400556
    PREGAP 00:00:33
    INDEX 01 00:00:00
FILE "02 - Fontana Chiara.wav" WAVE
  TRACK 02 AUDIO
    TITLE "Fontana Chiara"
    PERFORMER "Rino Gaetano"
    ISRC ITB008400557
    INDEX 01 00:00:00
FILE "03 - Spendi Spandi Effendi.wav" WAVE
  TRACK 03 AUDIO
    TITLE "Spendi Spandi Effendi"
    PERFORMER "Rino Gaetano"
    ISRC ITB008400558
    INDEX 01 00:00:00
FILE "04 - Sei Ottavi.wav" WAVE
  TRACK 04 AUDIO
    TITLE "Sei Ottavi"
    PERFORMER "Rino Gaetano"
    ISRC ITB008400559
    INDEX 01 00:00:00
FILE "05 - Escluso Il Cane.wav" WAVE
  TRACK 05 AUDIO
    TITLE "Escluso Il Cane"
    PERFORMER "Rino Gaetano"
    ISRC ITB008400560
    INDEX 01 00:00:00
FILE "06 - La Festa Di Maria.wav" WAVE
  TRACK 06 AUDIO
    TITLE "La Festa Di Maria"
    PERFORMER "Rino Gaetano"
    ISRC ITB008400561
    INDEX 01 00:00:00
FILE "07 - Rare Tracce.wav" WAVE
  TRACK 07 AUDIO
    TITLE "Rare Tracce"
    PERFORMER "Rino Gaetano"
    ISRC ITB008400562
    INDEX 01 00:00:00
FILE "08 - Standard.wav" WAVE
  TRACK 08 AUDIO
    TITLE "Standard"
    PERFORMER "Rino Gaetano"
    ISRC ITB008400563
    INDEX 01 00:00:00
FILE "09 - Ok Papà.wav" WAVE
  TRACK 09 AUDIO
    TITLE "Ok Papà"
    PERFORMER "Rino Gaetano"
    ISRC ITB008400564
    INDEX 01 00:00:00
Правила, инструкции, FAQ!!!
Торрент  Добавлен [26 мар 2019, 20:37] Скачать торрент Магнет ссылка
Скачать торрент
[ Размер 33.65 КБ / Просмотров 1 ]

Статус
Проверен 
 
Размер  207.02 МБ
Приватный: Нет (DHT включён)
.torrent скачан  0
 


     Отправить личное сообщение
   
Страница 1 из 1
Показать сообщения за:  Поле сортировки  
Начать новую тему Ответить на тему


Сейчас этот форум просматривают: нет зарегистрированных пользователей и гости: 0


Вы не можете начинать темы
Вы не можете отвечать на сообщения
Вы не можете редактировать свои сообщения
Вы не можете удалять свои сообщения
Вы не можете добавлять вложения

Перейти:  
cron