Начать новую тему Ответить на тему
Статистика раздачи
Размер: 266.55 МБ | Добавлен: 26 мар 2019, 20:11 | Скачали: 0
Сидеров: 0  [0 байт/сек]    Личеров: 0  [0 байт/сек]
Пред. тема | След. тема 

Автор
Сообщение

СообщениеДобавлено: 26 мар 2019, 20:11 

Ответить с цитатой 

Primrose / What You Want to Believe
Жанр: Rock/Pop
Носитель: CD
Страна-производитель диска (релиза): Россия
Год издания: 2006
Издатель (лейбл): DP UK/Союз
Номер по каталогу: TP-373
Страна исполнителя (группы): Скандинавия
Аудиокодек: FLAC (*.flac)
Тип рипа: image+.cue
Битрейт аудио: lossless
Продолжительность: 40:04
Источник (релизер): Диск с распродажи за 20р.
Наличие сканов в содержимом раздачи: нет
Треклист:
1. Stranger Come Around
2. So Alive
3. The Best in You
4. Pretty Girl
5. Insane
6. Ambitious Girl
7. Rude
8. Take on Me
9. Sad Song
10. Say's Enough
MP3 (VBR ~192):
http://rutracker.org/forum/viewtopic.php?t=5027106
Код:
Exact Audio Copy V1.0 beta 3 from 29. August 2011
Отчёт EAC об извлечении, выполненном 28. мая 2015, 11:26
Primrose / What You Want to Believe
Дисковод: Optiarc DVD RW AD-7260S   Adapter: 3  ID: 0
Режим чтения                 : Достоверность
Использование точного потока : Да
Отключение кэша аудио        : Да
Использование указателей C2  : Нет
Коррекция смещения при чтении                     : 48
Способность читать области Lead-in и Lead-out     : Нет
Заполнение пропущенных сэмплов тишиной            : Да
Удаление блоков с тишиной в начале и конце        : Нет
При вычислениях CRC использовались нулевые сэмплы : Да
Интерфейс                                         : Встроенный Win32-интерфейс для Win NT/2000
Выходной формат : Внутренние WAV-операции
Формат сэмплов  : 44.100 Гц; 16 бит; стерео
TOC извлечённого CD
     Трек |   Старт  | Длительность | Начальный сектор | Конечный сектор
    ---------------------------------------------------------------------
       1  |  0:00.00 |    3:15.39   |           0      |      14663
       2  |  3:15.39 |    3:57.31   |       14664      |      32469
       3  |  7:12.70 |    4:07.54   |       32470      |      51048
       4  | 11:20.49 |    3:36.42   |       51049      |      67290
       5  | 14:57.16 |    5:28.29   |       67291      |      91919
       6  | 20:25.45 |    4:02.55   |       91920      |     110124
       7  | 24:28.25 |    3:11.52   |      110125      |     124501
       8  | 27:40.02 |    3:48.57   |      124502      |     141658
       9  | 31:28.59 |    4:39.55   |      141659      |     162638
      10  | 36:08.39 |    3:56.11   |      162639      |     180349
Характеристики диапазона извлечения и сообщения об ошибках
Выбранный диапазон
     Имя файла D:\Wav\Primrose\Primrose - What You Want to Believe.wav
     Пиковый уровень 96.6 %
     Скорость извлечения 3.6 X
     Качество диапазона 99.9 %
     CRC копии AB309804
     Копирование... OK
Ошибок не произошло
AccurateRip: сводка
Трек  1  : извлечено точно (доверие 1)  [EC4FB234]  (AR v2)
Трек  2  : извлечено точно (доверие 1)  [C88C0585]  (AR v2)
Трек  3  : извлечено точно (доверие 1)  [B583D455]  (AR v2)
Трек  4  : извлечено точно (доверие 1)  [26A601B6]  (AR v2)
Трек  5  : извлечено точно (доверие 1)  [54BA1640]  (AR v2)
Трек  6  : извлечено точно (доверие 1)  [5818C7DA]  (AR v2)
Трек  7  : извлечено точно (доверие 1)  [9363A4B1]  (AR v2)
Трек  8  : извлечено точно (доверие 1)  [AD8EC2AE]  (AR v2)
Трек  9  : извлечено точно (доверие 1)  [035F1839]  (AR v2)
Трек 10  : извлечено точно (доверие 1)  [88D9882A]  (AR v2)
Все треки извлечены точно
Конец отчёта
==== Контрольная сумма отчёта BEDAB3792FA738DB8575C3914C334C1B49F693316130D8094D2B837D6C9BB2DF ====
Код:
REM GENRE Rock
REM DATE 2006
REM DISCID 8B09640A
REM COMMENT "ExactAudioCopy v1.0b3"
PERFORMER "Primrose"
TITLE "What You Want to Believe"
FILE "Primrose - What You Want to Believe.flac" WAVE
  TRACK 01 AUDIO
    TITLE "Stranger Come Around"
    PERFORMER "Primrose"
    INDEX 01 00:00:00
  TRACK 02 AUDIO
    TITLE "So Alive"
    PERFORMER "Primrose"
    INDEX 01 03:15:39
  TRACK 03 AUDIO
    TITLE "The Best in You"
    PERFORMER "Primrose"
    INDEX 01 07:12:70
  TRACK 04 AUDIO
    TITLE "Pretty Girl"
    PERFORMER "Primrose"
    INDEX 01 11:20:49
  TRACK 05 AUDIO
    TITLE "Insane"
    PERFORMER "Primrose"
    INDEX 01 14:57:16
  TRACK 06 AUDIO
    TITLE "Ambitious Girl"
    PERFORMER "Primrose"
    INDEX 01 20:25:45
  TRACK 07 AUDIO
    TITLE "Rude"
    PERFORMER "Primrose"
    INDEX 01 24:28:25
  TRACK 08 AUDIO
    TITLE "Take on Me"
    PERFORMER "Primrose"
    INDEX 01 27:40:02
  TRACK 09 AUDIO
    TITLE "Sad Song"
    PERFORMER "Primrose"
    INDEX 01 31:28:59
  TRACK 10 AUDIO
    TITLE "Say's Enough"
    PERFORMER "Primrose"
    INDEX 01 36:08:39
Код:
AccurateRip: сводка
Трек  1  : извлечено точно (доверие 1)  [EC4FB234]  (AR v2)
Трек  2  : извлечено точно (доверие 1)  [C88C0585]  (AR v2)
Трек  3  : извлечено точно (доверие 1)  [B583D455]  (AR v2)
Трек  4  : извлечено точно (доверие 1)  [26A601B6]  (AR v2)
Трек  5  : извлечено точно (доверие 1)  [54BA1640]  (AR v2)
Трек  6  : извлечено точно (доверие 1)  [5818C7DA]  (AR v2)
Трек  7  : извлечено точно (доверие 1)  [9363A4B1]  (AR v2)
Трек  8  : извлечено точно (доверие 1)  [AD8EC2AE]  (AR v2)
Трек  9  : извлечено точно (доверие 1)  [035F1839]  (AR v2)
Трек 10  : извлечено точно (доверие 1)  [88D9882A]  (AR v2)
Все треки извлечены точно
Правила, инструкции, FAQ!!!
Торрент  Добавлен [26 мар 2019, 20:11] Скачать торрент Магнет ссылка
Скачать торрент
[ Размер 11.11 КБ / Просмотров 1 ]

Статус
Проверен 
 
Размер  266.55 МБ
Приватный: Нет (DHT включён)
.torrent скачан  0
 


     Отправить личное сообщение
   
Страница 1 из 1
Показать сообщения за:  Поле сортировки  
Начать новую тему Ответить на тему


Сейчас этот форум просматривают: нет зарегистрированных пользователей и гости: 0


Вы не можете начинать темы
Вы не можете отвечать на сообщения
Вы не можете редактировать свои сообщения
Вы не можете удалять свои сообщения
Вы не можете добавлять вложения

Перейти:  
cron