Начать новую тему Ответить на тему
Статистика раздачи
Размер: 266.93 МБ | Добавлен: 26 мар 2019, 20:46 | Скачали: 1
Сидеров: 0  [0 байт/сек]    Личеров: 0  [0 байт/сек]
Пред. тема | След. тема 

Автор
Сообщение

СообщениеДобавлено: 26 мар 2019, 20:46 

Ответить с цитатой 

Partner / A Man-Size Job Requires A Man-Size 1978
Жанр: Rock, Pop
Страна-производитель диска: Russia(пиратка)
Год издания: 1978
Страна: Netherlands
Аудиокодек: FLAC (*.flac)
Тип рипа: image+.cue
Битрейт аудио: lossless
Продолжительность: 00:42:47
Источник (релизер): Свой диск
Наличие сканов в содержимом раздачи: нет
Треклист:
1. (Overture) Astral Sights
02. Part Of My Life
03. Won't You Let Me Try Again
04. Home Again
05. Thank You For Being Here
06. Kayuta Hill
07. Long Lost Love Song
08. City Lights
09. Sorry For The Night
10. Another Lonely Day (Finale)
Код:
Exact Audio Copy V1.0 beta 3 from 29. August 2011
Отчёт EAC об извлечении, выполненном 19. марта 2013, 15:30
A Man-Size Job Requires A Man-Size Meal / Partner
Дисковод: Optiarc DVD RW AD-7740H   Adapter: 1  ID: 0
Режим чтения                 : Достоверность
Использование точного потока : Да
Отключение кэша аудио        : Да
Использование указателей C2  : Нет
Коррекция смещения при чтении                     : 48
Способность читать области Lead-in и Lead-out     : Нет
Заполнение пропущенных сэмплов тишиной            : Да
Удаление блоков с тишиной в начале и конце        : Нет
При вычислениях CRC использовались нулевые сэмплы : Да
Интерфейс                                         : Встроенный Win32-интерфейс для Win NT/2000
Выходной формат          : Пользовательский кодировщик
Выбранный битрейт        : 896 kBit/s
Качество                 : Высокий
Добавление ID3-тега      : Нет
Утилита сжатия           : C:\Program Files (x86)\Exact Audio Copy\Flac\flac.exe
Дополнительные параметры : -V -8 -T "Date=%year%" -T "Genre=%genre%" %source%
TOC извлечённого CD
     Трек |   Старт  | Длительность | Начальный сектор | Конечный сектор
    ---------------------------------------------------------------------
       1  |  0:00.00 |    5:00.24   |           0      |      22523
       2  |  5:00.24 |    4:21.24   |       22524      |      42122
       3  |  9:21.48 |    3:53.06   |       42123      |      59603
       4  | 13:14.54 |    4:33.15   |       59604      |      80093
       5  | 17:47.69 |    4:14.47   |       80094      |      99190
       6  | 22:02.41 |    3:16.50   |       99191      |     113940
       7  | 25:19.16 |    1:51.17   |      113941      |     122282
       8  | 27:10.33 |    3:41.70   |      122283      |     138927
       9  | 30:52.28 |    3:56.04   |      138928      |     156631
      10  | 34:48.32 |    7:58.66   |      156632      |     192547
Характеристики диапазона извлечения и сообщения об ошибках
Выбранный диапазон
     Имя файла C:\Новая папка (4)\A Man-Size Job Requires A Man-Size Meal - Partner.wav
     Пиковый уровень 100.0 %
     Скорость извлечения 2.0 X
     Качество диапазона 100.0 %
     CRC теста FB8FD6C7
     CRC копии FB8FD6C7
     Копирование... OK
Ошибок не произошло
Конец отчёта
Код:
REM GENRE Rock
REM DATE 1978
REM DISCID 770A070A
REM COMMENT "ExactAudioCopy v1.0b3"
PERFORMER "A Man-Size Job Requires A Man-Size Meal"
TITLE "Partner "
FILE "A Man-Size Job Requires A Man-Size Meal - Partner.flac" WAVE
  TRACK 01 AUDIO
    TITLE "01-(Overture) Astral Sights"
    PERFORMER "A Man-Size Job Requires A Man-Size Meal"
    FLAGS DCP
    INDEX 01 00:00:00
  TRACK 02 AUDIO
    TITLE "02-Part Of My Life"
    PERFORMER "A Man-Size Job Requires A Man-Size Meal"
    FLAGS DCP
    INDEX 00 04:58:24
    INDEX 01 05:00:24
  TRACK 03 AUDIO
    TITLE "03-Won't You Let Me Try Again"
    PERFORMER "A Man-Size Job Requires A Man-Size Meal"
    FLAGS DCP
    INDEX 00 09:19:48
    INDEX 01 09:21:48
  TRACK 04 AUDIO
    TITLE "04-Home Again"
    PERFORMER "A Man-Size Job Requires A Man-Size Meal"
    FLAGS DCP
    INDEX 00 13:12:54
    INDEX 01 13:14:54
  TRACK 05 AUDIO
    TITLE "05-Thank You For Being Here"
    PERFORMER "A Man-Size Job Requires A Man-Size Meal"
    FLAGS DCP
    INDEX 00 17:45:69
    INDEX 01 17:47:69
  TRACK 06 AUDIO
    TITLE "06-Kayuta Hill"
    PERFORMER "A Man-Size Job Requires A Man-Size Meal"
    FLAGS DCP
    INDEX 00 22:00:41
    INDEX 01 22:02:41
  TRACK 07 AUDIO
    TITLE "07-Long Lost Love Song"
    PERFORMER "A Man-Size Job Requires A Man-Size Meal"
    FLAGS DCP
    INDEX 00 25:17:16
    INDEX 01 25:19:16
  TRACK 08 AUDIO
    TITLE "08-City Lights"
    PERFORMER "A Man-Size Job Requires A Man-Size Meal"
    FLAGS DCP
    INDEX 00 27:08:33
    INDEX 01 27:10:33
  TRACK 09 AUDIO
    TITLE "09-Sorry For The Night"
    PERFORMER "A Man-Size Job Requires A Man-Size Meal"
    FLAGS DCP
    INDEX 00 30:50:28
    INDEX 01 30:52:28
  TRACK 10 AUDIO
    TITLE "10-Another Lonely Day (Finale)"
    PERFORMER "A Man-Size Job Requires A Man-Size Meal"
    FLAGS DCP
    INDEX 00 34:46:32
    INDEX 01 34:48:32
Доп. информация: Диск куплен на "Гарбушке" в середине 90х
Bass, Vocals – Pierre Beckers
Guitar, Vocals – Bert Bessems
Vocals, Drums, Percussion – Ab Van Goor
Vocals, Keyboards – Erwin Musper
Правила, инструкции, FAQ!!!
Торрент  Добавлен [26 мар 2019, 20:46] Скачать торрент Магнет ссылка
Скачать торрент
[ Размер 11.16 КБ / Просмотров 5 ]

Статус
Проверен 
 
Размер  266.93 МБ
Приватный: Нет (DHT включён)
.torrent скачан  1
 


     Отправить личное сообщение
   
Страница 1 из 1
Показать сообщения за:  Поле сортировки  
Начать новую тему Ответить на тему


Сейчас этот форум просматривают: нет зарегистрированных пользователей и гости: 0


Вы не можете начинать темы
Вы не можете отвечать на сообщения
Вы не можете редактировать свои сообщения
Вы не можете удалять свои сообщения
Вы не можете добавлять вложения

Перейти:  
cron