Начать новую тему Ответить на тему
Статистика раздачи
Размер: 413.2 МБ | Добавлен: 26 мар 2019, 20:59 | Скачали: 0
Сидеров: 1  [0 байт/сек]    Личеров: 14  [0 байт/сек]
Пред. тема | След. тема 

Автор
Сообщение

СообщениеДобавлено: 26 мар 2019, 20:59 

Ответить с цитатой 

Tina Dico - Live With The Danish Chamber Orchestra CD + DVD(2011) / Limited Edition
Жанр: Rock/Pop, Live Performances, Rock
Носитель: CD
Страна-производитель диска: Denmark / EU
Год издания: 14 November 2011
Издатель (лейбл): Finest Gramaphone / #FINEST11
Номер по каталогу: LC-19077
Страна: Denmark
Аудиокодек: FLAC (*.flac)
Тип рипа: tracks+.cue
Битрейт аудио: lossless
Продолжительность: 00:01:38.46
Источник (релизер): Мой CD и рип
Наличие сканов в содержимом раздачи: да
Треклист:
01 True North
02 Sacre Coeur
03 In Love and War
04 They Should See Me
05 He Doesn 't Know
06 Count to Ten
07 My Heart is Full of Hope
08 Love All Around
09 Heaven and Hell
10 Home
11 Moment of Bliss
12 The River of What's Been
13 The Road
Код:
Exact Audio Copy V1.0 beta 3 from 29. August 2011
EAC extraction logfile from 24. July 2012, 19:04
Tina Dico / Live With The Danish Chamber Orchestra
Used drive  : PIONEER DVDRW   DVR-K17B   Adapter: 0  ID: 0
Read mode               : Secure
Utilize accurate stream : Yes
Defeat audio cache      : Yes
Make use of C2 pointers : No
Read offset correction                      : 48
Overread into Lead-In and Lead-Out          : No
Fill up missing offset samples with silence : Yes
Delete leading and trailing silent blocks   : No
Null samples used in CRC calculations       : Yes
Used interface                              : Native Win32 interface for Win NT & 2000
Gap handling                                : Appended to previous track
Used output format              : User Defined Encoder
Selected bitrate                : 1024 kBit/s
Quality                         : High
Add ID3 tag                     : No
Command line compressor         : C:\Program Files\Exact Audio Copy\Flac\flac.exe
Additional command line options : -8 -V -T "ARTIST=%artist%" -T "TITLE=%title%" -T "ALBUM=%albumtitle%" -T "DATE=%year%" -T "TRACKNUMBER=%tracknr%" -T "TOTALTRACKS=%numtracks%" -T "GENRE=%genre%" -T "ALBUMARTIST=%albumartist%" -T "ALBUM ARTIST=%albumartist%" -T "COMMENT=EAC Secure Mode, Test & Copy, AccurateRip, FLAC -8" %source%
TOC of the extracted CD
     Track |   Start  |  Length  | Start sector | End sector
    ---------------------------------------------------------
        1  |  0:00.00 |  5:10.51 |         0    |    23300
        2  |  5:10.51 |  6:01.36 |     23301    |    50411
        3  | 11:12.12 |  4:11.50 |     50412    |    69286
        4  | 15:23.62 |  5:04.17 |     69287    |    92103
        5  | 20:28.04 |  4:46.44 |     92104    |   113597
        6  | 25:14.48 |  5:35.35 |    113598    |   138757
        7  | 30:50.08 |  2:47.67 |    138758    |   151349
        8  | 33:38.00 |  3:20.21 |    151350    |   166370
        9  | 36:58.21 |  4:57.23 |    166371    |   188668
       10  | 41:55.44 |  4:50.22 |    188669    |   210440
       11  | 46:45.66 |  1:45.55 |    210441    |   218370
       12  | 48:31.46 |  4:30.34 |    218371    |   238654
       13  | 53:02.05 |  7:36.42 |    238655    |   272896
Track  1
     Filename D:\Georgi My  RIPS\Tina Dico - Live With The Danish Chamber Orchestra (2011) CD\01. - True North.wav
     Pre-gap length  0:00:02.00
     Peak level 98.9 %
     Extraction speed 2.1 X
     Track quality 100.0 %
     Test CRC 6B998AAC
     Copy CRC 6B998AAC
     Accurately ripped (confidence 2)  [11C87C69]  (AR v2)
     Copy OK
Track  2
     Filename D:\Georgi My  RIPS\Tina Dico - Live With The Danish Chamber Orchestra (2011) CD\02. - Sacre Coeur.wav
     Peak level 98.9 %
     Extraction speed 2.4 X
     Track quality 100.0 %
     Test CRC 7C2E6317
     Copy CRC 7C2E6317
     Accurately ripped (confidence 2)  [C3B6319B]  (AR v2)
     Copy OK
Track  3
     Filename D:\Georgi My  RIPS\Tina Dico - Live With The Danish Chamber Orchestra (2011) CD\03. - In Love And War.wav
     Peak level 98.9 %
     Extraction speed 2.3 X
     Track quality 99.9 %
     Test CRC CA5EE009
     Copy CRC CA5EE009
     Accurately ripped (confidence 2)  [93C359FD]  (AR v2)
     Copy OK
Track  4
     Filename D:\Georgi My  RIPS\Tina Dico - Live With The Danish Chamber Orchestra (2011) CD\04. - They Should See Me.wav
     Peak level 98.9 %
     Extraction speed 2.8 X
     Track quality 100.0 %
     Test CRC 59E14B3D
     Copy CRC 59E14B3D
     Accurately ripped (confidence 2)  [A7722483]  (AR v2)
     Copy OK
Track  5
     Filename D:\Georgi My  RIPS\Tina Dico - Live With The Danish Chamber Orchestra (2011) CD\05. - He Doesn't Know.wav
     Peak level 98.9 %
     Extraction speed 2.9 X
     Track quality 100.0 %
     Test CRC 81C42EE1
     Copy CRC 81C42EE1
     Accurately ripped (confidence 2)  [AF8B6A22]  (AR v2)
     Copy OK
Track  6
     Filename D:\Georgi My  RIPS\Tina Dico - Live With The Danish Chamber Orchestra (2011) CD\06. - Count To Ten.wav
     Peak level 98.9 %
     Extraction speed 3.2 X
     Track quality 100.0 %
     Test CRC 646A374B
     Copy CRC 646A374B
     Accurately ripped (confidence 2)  [787B30A0]  (AR v2)
     Copy OK
Track  7
     Filename D:\Georgi My  RIPS\Tina Dico - Live With The Danish Chamber Orchestra (2011) CD\07. - My Heart Is Full Of Hope.wav
     Peak level 98.8 %
     Extraction speed 3.0 X
     Track quality 100.0 %
     Test CRC 22FC951F
     Copy CRC 22FC951F
     Accurately ripped (confidence 2)  [ABC03FBC]  (AR v2)
     Copy OK
Track  8
     Filename D:\Georgi My  RIPS\Tina Dico - Live With The Danish Chamber Orchestra (2011) CD\08. - Love All Around.wav
     Peak level 98.9 %
     Extraction speed 3.2 X
     Track quality 100.0 %
     Test CRC 34486F5C
     Copy CRC 34486F5C
     Accurately ripped (confidence 2)  [5E809A64]  (AR v2)
     Copy OK
Track  9
     Filename D:\Georgi My  RIPS\Tina Dico - Live With The Danish Chamber Orchestra (2011) CD\09. - Heaven And Hell.wav
     Peak level 98.9 %
     Extraction speed 3.5 X
     Track quality 100.0 %
     Test CRC E28E5CB4
     Copy CRC E28E5CB4
     Accurately ripped (confidence 2)  [06B2F3FD]  (AR v2)
     Copy OK
Track 10
     Filename D:\Georgi My  RIPS\Tina Dico - Live With The Danish Chamber Orchestra (2011) CD\10. - Home.wav
     Peak level 98.9 %
     Extraction speed 3.6 X
     Track quality 100.0 %
     Test CRC 45BCA12E
     Copy CRC 45BCA12E
     Accurately ripped (confidence 2)  [9FBD192F]  (AR v2)
     Copy OK
Track 11
     Filename D:\Georgi My  RIPS\Tina Dico - Live With The Danish Chamber Orchestra (2011) CD\11. - Moment Of Bliss.wav
     Peak level 71.3 %
     Extraction speed 3.1 X
     Track quality 100.0 %
     Test CRC 6910A23B
     Copy CRC 6910A23B
     Accurately ripped (confidence 2)  [7F7E7B37]  (AR v2)
     Copy OK
Track 12
     Filename D:\Georgi My  RIPS\Tina Dico - Live With The Danish Chamber Orchestra (2011) CD\12. - The River Of What's Been.wav
     Peak level 98.9 %
     Extraction speed 3.8 X
     Track quality 100.0 %
     Test CRC 4EB53915
     Copy CRC 4EB53915
     Accurately ripped (confidence 2)  [629BCD85]  (AR v2)
     Copy OK
Track 13
     Filename D:\Georgi My  RIPS\Tina Dico - Live With The Danish Chamber Orchestra (2011) CD\13. - The Road.wav
     Peak level 98.8 %
     Extraction speed 4.1 X
     Track quality 100.0 %
     Test CRC CDD37578
     Copy CRC CDD37578
     Accurately ripped (confidence 2)  [0B295E7F]  (AR v2)
     Copy OK
All tracks accurately ripped
No errors occurred
End of status report
==== Log checksum E0230DA4968522AEA44B9AC1004C84AABFFE3353862668357CB179E05AD4D7C4 ====
Код:
REM GENRE Acoustic
REM DATE 2011
REM DISCID 950E360D
REM COMMENT "ExactAudioCopy v1.0b3"
PERFORMER "Tina Dico"
TITLE "Live With The Danish Chamber Orchestra"
FILE "01. - True North.wav" WAVE
  TRACK 01 AUDIO
    TITLE "True North"
    PERFORMER "Tina Dico"
    ISRC DKAE91100014
    INDEX 01 00:00:00
FILE "02. - Sacre Coeur.wav" WAVE
  TRACK 02 AUDIO
    TITLE "Sacre Coeur"
    PERFORMER "Tina Dico"
    ISRC DKAE91100015
    INDEX 01 00:00:00
FILE "03. - In Love And War.wav" WAVE
  TRACK 03 AUDIO
    TITLE "In Love And War"
    PERFORMER "Tina Dico"
    ISRC DKAE91100016
    INDEX 01 00:00:00
FILE "04. - They Should See Me.wav" WAVE
  TRACK 04 AUDIO
    TITLE "They Should See Me"
    PERFORMER "Tina Dico"
    ISRC DKAE91100017
    INDEX 01 00:00:00
FILE "05. - He Doesn't Know.wav" WAVE
  TRACK 05 AUDIO
    TITLE "He Doesn't Know"
    PERFORMER "Tina Dico"
    ISRC DKAE91100018
    INDEX 01 00:00:00
FILE "06. - Count To Ten.wav" WAVE
  TRACK 06 AUDIO
    TITLE "Count To Ten"
    PERFORMER "Tina Dico"
    ISRC DKAE91100019
    INDEX 01 00:00:00
FILE "07. - My Heart Is Full Of Hope.wav" WAVE
  TRACK 07 AUDIO
    TITLE "My Heart Is Full Of Hope"
    PERFORMER "Tina Dico"
    ISRC DKAE91100020
    INDEX 01 00:00:00
FILE "08. - Love All Around.wav" WAVE
  TRACK 08 AUDIO
    TITLE "Love All Around"
    PERFORMER "Tina Dico"
    ISRC DKAE91100021
    INDEX 01 00:00:00
FILE "09. - Heaven And Hell.wav" WAVE
  TRACK 09 AUDIO
    TITLE "Heaven And Hell"
    PERFORMER "Tina Dico"
    ISRC DKAE91100022
    INDEX 01 00:00:00
FILE "10. - Home.wav" WAVE
  TRACK 10 AUDIO
    TITLE "Home"
    PERFORMER "Tina Dico"
    ISRC DKAE91100023
    INDEX 01 00:00:00
FILE "11. - Moment Of Bliss.wav" WAVE
  TRACK 11 AUDIO
    TITLE "Moment Of Bliss"
    PERFORMER "Tina Dico"
    ISRC DKAE91100024
    INDEX 01 00:00:00
FILE "12. - The River Of What's Been.wav" WAVE
  TRACK 12 AUDIO
    TITLE "The River Of What's Been"
    PERFORMER "Tina Dico"
    ISRC DKAE91100025
    INDEX 01 00:00:00
FILE "13. - The Road.wav" WAVE
  TRACK 13 AUDIO
    TITLE "The Road"
    PERFORMER "Tina Dico"
    ISRC DKAE91100026
    INDEX 01 00:00:00
Доп. информация:
By Tiffany Robinson
Tina Dico is an amazing artist, and her music is powerful and special. She writes from the heart, and has a voice and lyrics that can evoke intense emotion. Thoughtful, tender, raw, moving--all of the above describe her songs, and this album is no exception. The song He Doesn't Know is achingly, hauntingly beautiful in this live version--it's probably my favorite on the disc. The way she sings and delivers the lyrics and certain words in the song--it's extremely effective and adds so much to an already exceptional piece. The track True North conjures up a feeling of excitement and movement into vast, far off places. Sacre Coeur is a darkly gorgeous song about not knowing which direction in which to go: "I could go home, to my love, and live the life I've always wanted; I could go on, running off, into the night, lonely and haunted." They Should See Me, The Road, and The River of What's Been are also all memorable and poignant.
Everything Tina Dico writes and performs plunges down into the furthest depth of my heart and moves me so fiercely. I cannot recommend this album, and all her other material, enough!
http://tinadico.com/music/work/true-north-cd/
Helgi Jónsson (vocals, trombone, piano); Dennis Ahlgren (guitar, mandolin, piano); Ivar Bremer Hauge, Walter Gaffron, Michala Mansa, Marianne Sorensen, Julie Eskar, Emily Fowler, Elin Paulsberg, Christine Enevold, Robert Vadsz, Peter Piotr Gasior, Monika Malmquist-Larsen (violin); Ola Rokkum, Mette Thykier, Caitlin Wick, Magda Stevensson (viola); Barbara Skorb Stadnicka, Jan Harald Halvorsen, Helle Sorensen, Andreas Broch (cello); Agneta Bengtsson (flute); Mette Bugge Madsen (clarinet); Radi Radev (oboe); Katrina Hindersson (bassoon); Thomas Jensen , Per Olesen (trumpet); Flemming Andreassen, Anders Stigsgaard-Larsen (trombone); Joans Lindström, Thomas Khelldén (horns); Jerzy Trefon, Igor Niemand, Kryzysztof Panus (double bass); Paul Therkildsen (drums); Kasper Thiesson, Niels Henkel (percussion). Audio Mixers: Lars Bruun; Helgi Jónsson; Jonas Jensen.
DVD
Mои раздачи
Правила, инструкции, FAQ!!!
Торрент  Добавлен [26 мар 2019, 20:59] Скачать торрент Магнет ссылка
Скачать торрент
[ Размер 18.7 КБ / Просмотров 12 ]

Статус
Проверен 
 
Размер  413.2 МБ
Приватный: Нет (DHT включён)
.torrent скачан  0
 


     Отправить личное сообщение
   
Страница 1 из 1
Показать сообщения за:  Поле сортировки  
Начать новую тему Ответить на тему


Сейчас этот форум просматривают: нет зарегистрированных пользователей и гости: 0


Вы не можете начинать темы
Вы не можете отвечать на сообщения
Вы не можете редактировать свои сообщения
Вы не можете удалять свои сообщения
Вы не можете добавлять вложения

Перейти:  
cron