Начать новую тему Ответить на тему
Статистика раздачи
Размер: 459.88 МБ | Добавлен: 26 мар 2019, 19:16 | Скачали: 0
Сидеров: 0  [0 байт/сек]    Личеров: 0  [0 байт/сек]
Пред. тема | След. тема 

Автор
Сообщение

СообщениеДобавлено: 26 мар 2019, 19:16 

Ответить с цитатой 

Ivan Graziani / The Best Of (1999)
Жанр: Rock / Pop
Носитель: CD
Страна-производитель диска (релиза): Italy
Год издания: 1999
Издатель (лейбл): Carosello
Номер по каталогу: 300 658-2
Страна исполнителя (группы): Italy
Аудиокодек: FLAC (*.flac)
Тип рипа: tracks+.cue
Битрейт аудио: lossless
Продолжительность: 01:13:37
Источник (релизер): Найдено на просторах интернета
Наличие сканов в содержимом раздачи: да
Треклист:
01 Firenze (canzone triste)
02 Guaglio' guaglio'
03 Johnny non c'entra
04 Lugano addio
05 Agnese
06 Bambino antico
07 La sposa bambina
08 La bella Gina
09 Maledette malelingue
10 Soltanto fumo
11 Psychedelico
12 Radici nel vento
13 Emily
14 Il chitarrista
15 Pigro
16 Le mani di Giulia
17 Ora et Labora
18 E sei cosi' bella
Код:
V0.99 prebeta 5 from 4. May 2009
Estrazione file di log EAC da 20. Giugno 2010, 11:46
Ivan Graziani / The Best of
Unitа predefinita: PHILIPS DVDR1640P   Adapter: 0  ID: 1
Modalitа di lettura:  :
                      : Sм
                      : No
                      : No
Correzione offset di lettura:               : 618
Sovrascrivi anche nel Lead-In e Lead-Out    : No
Riempi sample offset mancanti con silenzio  : Sм
Rimuovi blocchi di silezio ad inizio e fine : No
                                            : No
                                            : Interfaccia nativa Win32 per Windows NT & 2000
                                            :
Formato di destinazione scelto:         : Usa Encoder definito da utente
                                        : 1024 kBit/s
                                        : Alta
                                        : No
                                        : C:\Program Files\Exact Audio Copy\FLAC\FLAC.EXE
Opzioni aggiuntive da riga di comando:  : -6 -V -T "ARTIST=%a" -T "TITLE=%t" -T "ALBUM=%g" -T "DATE=%y" -T "TRACKNUMBER=%n" -T "GENRE=%m" -T "COMMENT=%e" %s -o %d
        |          |          |        |
    --------------------------------------------
      1 |  0:00.00 |  4:46.40 |      0 |  21489
      2 |  4:46.40 |  4:48.37 |  21490 |  43126
      3 |  9:35.02 |  3:54.46 |  43127 |  60722
      4 | 13:29.48 |  4:37.24 |  60723 |  81521
      5 | 18:06.72 |  3:34.06 |  81522 |  97577
      6 | 21:41.03 |  3:44.49 |  97578 | 114426
      7 | 25:25.52 |  4:30.38 | 114427 | 134714
      8 | 29:56.15 |  3:18.55 | 134715 | 149619
      9 | 33:14.70 |  3:53.08 | 149620 | 167102
     10 | 37:08.03 |  5:07.25 | 167103 | 190152
     11 | 42:15.28 |  3:44.69 | 190153 | 207021
     12 | 46:00.22 |  4:41.29 | 207022 | 228125
     13 | 50:41.51 |  4:14.07 | 228126 | 247182
     14 | 54:55.58 |  3:35.38 | 247183 | 263345
     15 | 58:31.21 |  2:24.18 | 263346 | 274163
     16 | 60:55.39 |  3:39.60 | 274164 | 290648
     17 | 64:35.24 |  4:44.20 | 290649 | 311968
     18 | 69:19.44 |  4:17.25 | 311969 | 331268
Traccia  1
     Nome file C:\Users\Lorenzo\EAC\01. Firenze (canzone triste) - Ivan Graziani - The Best of.wav
     Livello di picco 69.8 %
     Qualitа traccia 99.9 %
     Verifica CRC E5C470E5
     Copia CRC E5C470E5
1)  [56A488F2]
     Copia corretta
Traccia  2
     Nome file C:\Users\Lorenzo\EAC\02. Guaglio` guaglio` - Ivan Graziani - The Best of.wav
     Livello di picco 100.0 %
     Qualitа traccia 100.0 %
     Verifica CRC 6EFF4D9B
     Copia CRC 6EFF4D9B
1)  [13EB194D]
     Copia corretta
Traccia  3
     Nome file C:\Users\Lorenzo\EAC\03. Johnny non c'entra - Ivan Graziani - The Best of.wav
     Livello di picco 100.0 %
     Qualitа traccia 100.0 %
     Verifica CRC A4AB9A23
     Copia CRC A4AB9A23
1)  [C879FC8E]
     Copia corretta
Traccia  4
     Nome file C:\Users\Lorenzo\EAC\04. Lugano addio - Ivan Graziani - The Best of.wav
     Livello di picco 93.2 %
     Qualitа traccia 100.0 %
     Verifica CRC C86912E3
     Copia CRC C86912E3
1)  [00284D72]
     Copia corretta
Traccia  5
     Nome file C:\Users\Lorenzo\EAC\05. Agnese - Ivan Graziani - The Best of.wav
     Livello di picco 93.6 %
     Qualitа traccia 100.0 %
     Verifica CRC 9334B339
     Copia CRC 9334B339
1)  [96C81BF4]
     Copia corretta
Traccia  6
     Nome file C:\Users\Lorenzo\EAC\06. Bambino antico - Ivan Graziani - The Best of.wav
     Livello di picco 92.2 %
     Qualitа traccia 100.0 %
     Verifica CRC 64073549
     Copia CRC 64073549
1)  [6A7578D6]
     Copia corretta
Traccia  7
     Nome file C:\Users\Lorenzo\EAC\07. La sposa bambina - Ivan Graziani - The Best of.wav
     Livello di picco 87.7 %
     Qualitа traccia 100.0 %
     Verifica CRC 0967D7E9
     Copia CRC 0967D7E9
1)  [C063C02F]
     Copia corretta
Traccia  8
     Nome file C:\Users\Lorenzo\EAC\08. La bella Gina - Ivan Graziani - The Best of.wav
     Livello di picco 100.0 %
     Qualitа traccia 100.0 %
     Verifica CRC 6654925E
     Copia CRC 6654925E
1)  [33050CC2]
     Copia corretta
Traccia  9
     Nome file C:\Users\Lorenzo\EAC\09. Maledette malelingue - Ivan Graziani - The Best of.wav
     Livello di picco 100.0 %
     Qualitа traccia 99.9 %
     Verifica CRC F1F7C90B
     Copia CRC F1F7C90B
1)  [1CBADB84]
     Copia corretta
Traccia 10
     Nome file C:\Users\Lorenzo\EAC\10. Soltanto fumo - Ivan Graziani - The Best of.wav
     Livello di picco 93.5 %
     Qualitа traccia 100.0 %
     Verifica CRC 0B8E2024
     Copia CRC 0B8E2024
1)  [EC2DF17E]
     Copia corretta
Traccia 11
     Nome file C:\Users\Lorenzo\EAC\11. Psychedelico - Ivan Graziani - The Best of.wav
     Livello di picco 92.8 %
     Qualitа traccia 100.0 %
     Verifica CRC 0752D7F2
     Copia CRC 0752D7F2
1)  [96363BB8]
     Copia corretta
Traccia 12
     Nome file C:\Users\Lorenzo\EAC\12. Radici nel vento - Ivan Graziani - The Best of.wav
     Livello di picco 100.0 %
     Qualitа traccia 100.0 %
     Verifica CRC F46FC762
     Copia CRC F46FC762
1)  [13BAC9AF]
     Copia corretta
Traccia 13
     Nome file C:\Users\Lorenzo\EAC\13. Emily - Ivan Graziani - The Best of.wav
     Livello di picco 100.0 %
     Qualitа traccia 100.0 %
     Verifica CRC D7E2DFA1
     Copia CRC D7E2DFA1
1)  [4268126F]
     Copia corretta
Traccia 14
     Nome file C:\Users\Lorenzo\EAC\14. Il chitarrista - Ivan Graziani - The Best of.wav
     Livello di picco 100.0 %
     Qualitа traccia 99.9 %
     Verifica CRC C3F6BC32
     Copia CRC C3F6BC32
1)  [F77565FD]
     Copia corretta
Traccia 15
     Nome file C:\Users\Lorenzo\EAC\15. Pigro - Ivan Graziani - The Best of.wav
     Livello di picco 90.6 %
     Qualitа traccia 100.0 %
     Verifica CRC 90ACC919
     Copia CRC 90ACC919
1)  [EE3EDFD8]
     Copia corretta
Traccia 16
     Nome file C:\Users\Lorenzo\EAC\16. Le mani di Giulia - Ivan Graziani - The Best of.wav
     Livello di picco 100.0 %
     Qualitа traccia 99.9 %
     Verifica CRC 205A38F7
     Copia CRC 205A38F7
1)  [F0AF84E6]
     Copia corretta
Traccia 17
     Nome file C:\Users\Lorenzo\EAC\17. Ora et Labora - Ivan Graziani - The Best of.wav
     Livello di picco 100.0 %
     Qualitа traccia 99.9 %
     Verifica CRC 981B1901
     Copia CRC 981B1901
1)  [F44478D7]
     Copia corretta
Traccia 18
     Nome file C:\Users\Lorenzo\EAC\18. E sei cosi` bella - Ivan Graziani - The Best of.wav
     Livello di picco 87.3 %
     Qualitа traccia 100.0 %
     Verifica CRC BB469C2D
     Copia CRC BB469C2D
1)  [042009A2]
     Copia corretta
Non sono stati riscontrati errori
Fine del resoconto di stato
Код:
REM DATE 1999
REM DISCID 19114012
REM COMMENT "ExactAudioCopy v0.99pb5"
PERFORMER "Ivan Graziani"
TITLE "The Best of"
FILE "01 Firenze (canzone triste).wav" WAVE
  TRACK 01 AUDIO
    TITLE "Firenze (canzone triste)"
    PERFORMER "Ivan Graziani"
    INDEX 01 00:00:00
  TRACK 02 AUDIO
    TITLE "Guaglio' guaglio'"
    PERFORMER "Ivan Graziani"
    FLAGS DCP
    INDEX 00 04:42:50
FILE "02 Guaglio' guaglio'.wav" WAVE
    INDEX 01 00:00:00
  TRACK 03 AUDIO
    TITLE "Johnny non c'entra"
    PERFORMER "Ivan Graziani"
    FLAGS DCP
    INDEX 00 04:44:47
FILE "03 Johnny non c'entra.wav" WAVE
    INDEX 01 00:00:00
  TRACK 04 AUDIO
    TITLE "Lugano addio"
    PERFORMER "Ivan Graziani"
    FLAGS DCP
    INDEX 00 03:50:56
FILE "04 Lugano addio.wav" WAVE
    INDEX 01 00:00:00
  TRACK 05 AUDIO
    TITLE "Agnese"
    PERFORMER "Ivan Graziani"
    FLAGS DCP
    INDEX 00 04:33:34
FILE "05 Agnese.wav" WAVE
    INDEX 01 00:00:00
  TRACK 06 AUDIO
    TITLE "Bambino antico"
    PERFORMER "Ivan Graziani"
    FLAGS DCP
    INDEX 00 03:30:16
FILE "06 Bambino antico.wav" WAVE
    INDEX 01 00:00:00
  TRACK 07 AUDIO
    TITLE "La sposa bambina"
    PERFORMER "Ivan Graziani"
    FLAGS DCP
    INDEX 00 03:40:59
FILE "07 La sposa bambina.wav" WAVE
    INDEX 01 00:00:00
  TRACK 08 AUDIO
    TITLE "La bella Gina"
    PERFORMER "Ivan Graziani"
    FLAGS DCP
    INDEX 00 04:26:48
FILE "08 La bella Gina.wav" WAVE
    INDEX 01 00:00:00
  TRACK 09 AUDIO
    TITLE "Maledette malelingue"
    PERFORMER "Ivan Graziani"
    FLAGS DCP
    INDEX 00 03:14:65
FILE "09 Maledette malelingue.wav" WAVE
    INDEX 01 00:00:00
  TRACK 10 AUDIO
    TITLE "Soltanto fumo"
    PERFORMER "Ivan Graziani"
    FLAGS DCP
    INDEX 00 03:49:18
FILE "10 Soltanto fumo.wav" WAVE
    INDEX 01 00:00:00
  TRACK 11 AUDIO
    TITLE "Psychedelico"
    PERFORMER "Ivan Graziani"
    FLAGS DCP
    INDEX 00 05:03:35
FILE "11 Psychedelico.wav" WAVE
    INDEX 01 00:00:00
  TRACK 12 AUDIO
    TITLE "Radici nel vento"
    PERFORMER "Ivan Graziani"
    FLAGS DCP
    INDEX 00 03:41:04
FILE "12 Radici nel vento.wav" WAVE
    INDEX 01 00:00:00
  TRACK 13 AUDIO
    TITLE "Emily"
    PERFORMER "Ivan Graziani"
    FLAGS DCP
    INDEX 00 04:37:39
FILE "13 Emily.wav" WAVE
    INDEX 01 00:00:00
  TRACK 14 AUDIO
    TITLE "Il chitarrista"
    PERFORMER "Ivan Graziani"
    FLAGS DCP
    INDEX 00 04:10:17
FILE "14 Il chitarrista.wav" WAVE
    INDEX 01 00:00:00
  TRACK 15 AUDIO
    TITLE "Pigro"
    PERFORMER "Ivan Graziani"
    FLAGS DCP
    INDEX 00 03:31:48
FILE "15 Pigro.wav" WAVE
    INDEX 01 00:00:00
  TRACK 16 AUDIO
    TITLE "Le mani di Giulia"
    PERFORMER "Ivan Graziani"
    FLAGS DCP
    INDEX 00 02:20:28
FILE "16 Le mani di Giulia.wav" WAVE
    INDEX 01 00:00:00
  TRACK 17 AUDIO
    TITLE "Ora et Labora"
    PERFORMER "Ivan Graziani"
    FLAGS DCP
    INDEX 00 03:35:70
FILE "17 Ora et Labora.wav" WAVE
    INDEX 01 00:00:00
  TRACK 18 AUDIO
    TITLE "E sei cosi' bella"
    PERFORMER "Ivan Graziani"
    FLAGS DCP
    INDEX 00 04:40:30
FILE "18 E sei cosi' bella.wav" WAVE
    INDEX 01 00:00:00
Правила, инструкции, FAQ!!!
Торрент  Добавлен [26 мар 2019, 19:16] Скачать торрент Магнет ссылка
Скачать торрент
[ Размер 21.12 КБ / Просмотров 1 ]

Статус
Проверен 
 
Размер  459.88 МБ
Приватный: Нет (DHT включён)
.torrent скачан  0
 


     Отправить личное сообщение
   
Страница 1 из 1
Показать сообщения за:  Поле сортировки  
Начать новую тему Ответить на тему


Сейчас этот форум просматривают: нет зарегистрированных пользователей и гости: 0


Вы не можете начинать темы
Вы не можете отвечать на сообщения
Вы не можете редактировать свои сообщения
Вы не можете удалять свои сообщения
Вы не можете добавлять вложения

Перейти:  
cron