Начать новую тему Ответить на тему
Статистика раздачи
Размер: 112.54 МБ | Добавлен: 28 апр 2020, 19:54 | Скачали: 0
Сидеров: 0  [0 байт/сек]    Личеров: 0  [0 байт/сек]
Пред. тема | След. тема 

Автор
Сообщение

СообщениеДобавлено: 28 апр 2020, 19:54 

Ответить с цитатой 

INXS / Devil Inside
Жанр: Rock / Pop
Носитель: CDM
Страна-производитель диска (релиза): W. Germany
Год издания: 1988
Издатель (лейбл): Mercury
Номер по каталогу: 870 145-2
Страна исполнителя (группы): Australia
Аудиокодек: FLAC (*.flac)
Тип рипа: image+.cue
Режим рипа: test & copy
Битрейт аудио: lossless
Продолжительность: 00:18:21
Источник: собственный рип
Наличие сканов в содержимом раздачи: нет
Треклист:
01. Devil Inside (Re-Mix Version) [0:06:30.50]
02. Devil Inside (Seven Inch Version) [0:05:09.50]
03. On The Rocks [0:03:06.50]
04. What You Need [0:03:34.20]
Код:
Exact Audio Copy V1.5 from 20. February 2020
EAC extraction logfile from 16. April 2020, 17:34
INXS / Devil Inside
Used drive  : MATSHITABD-CMB UJ172 S   Adapter: 1  ID: 0
Read mode               : Secure
Utilize accurate stream : Yes
Defeat audio cache      : Yes
Make use of C2 pointers : No
Read offset correction                      : 103
Overread into Lead-In and Lead-Out          : No
Fill up missing offset samples with silence : Yes
Delete leading and trailing silent blocks   : No
Null samples used in CRC calculations       : Yes
Used interface                              : Native Win32 interface for Win NT & 2000
Used output format              : User Defined Encoder
Selected bitrate                : 768 kBit/s
Quality                         : High
Add ID3 tag                     : No
Command line compressor         : C:\Program Files (x86)\Exact Audio Copy\Flac\flac.exe
Additional command line options : -8 -V -T "Date=%year%" -T "Genre=%genre%" -T "COMMENT=ripped by sewerok®" %source%
TOC of the extracted CD
     Track |   Start  |  Length  | Start sector | End sector
    ---------------------------------------------------------
        1  |  0:00.33 |  6:30.50 |        33    |    29332
        2  |  6:31.08 |  5:09.50 |     29333    |    52557
        3  | 11:40.58 |  3:06.50 |     52558    |    66557
        4  | 14:47.33 |  3:34.20 |     66558    |    82627
Range status and errors
Selected range
     Filename F:\INXS - Devil Inside [1988] (Mercury 870 145-2 W. Germany)\INXS - Devil Inside.wav
     Peak level 85.1 %
     Extraction speed 3.2 X
     Range quality 100.0 %
     Test CRC B20A7AD6
     Copy CRC B20A7AD6
     Copy OK
No errors occurred
AccurateRip summary
Track  1  accurately ripped (confidence 10)  [812CBA22]  (AR v2)
Track  2  accurately ripped (confidence 10)  [3E9A079E]  (AR v2)
Track  3  accurately ripped (confidence 10)  [322A34DC]  (AR v2)
Track  4  accurately ripped (confidence 10)  [E2039683]  (AR v2)
All tracks accurately ripped
End of status report
---- CUETools DB Plugin V2.1.6
[CTDB TOCID: LwdgTdNEBDCvmppkniybECpl8Cg-] found
Submit result: LwdgTdNEBDCvmppkniybECpl8Cg- has been confirmed
Track | CTDB Status
  1   | (19/19) Accurately ripped
  2   | (19/19) Accurately ripped
  3   | (19/19) Accurately ripped
  4   | (19/19) Accurately ripped
==== Log checksum 9012A762F2CE90E2FD23CF7CCAC21191F45F3F5A1416379D833ADD52206481A9 ====
Код:
REM GENRE Rock
REM DATE 1988
REM DISCID 33044D04
REM COMMENT "ExactAudioCopy v1.5"
PERFORMER "INXS"
TITLE "Devil Inside"
REM COMPOSER ""
FILE "INXS - Devil Inside.flac" WAVE
  TRACK 01 AUDIO
    TITLE "Devil Inside (Re-Mix Version)"
    PERFORMER "INXS"
    REM COMPOSER ""
    INDEX 00 00:00:00
    INDEX 01 00:00:33
  TRACK 02 AUDIO
    TITLE "Devil Inside (Seven Inch Version)"
    PERFORMER "INXS"
    REM COMPOSER ""
    INDEX 00 06:29:53
    INDEX 01 06:31:08
  TRACK 03 AUDIO
    TITLE "On The Rocks"
    PERFORMER "INXS"
    REM COMPOSER ""
    INDEX 01 11:40:58
  TRACK 04 AUDIO
    TITLE "What You Need"
    PERFORMER "INXS"
    REM COMPOSER ""
    INDEX 01 14:47:33
Правила, инструкции, FAQ!!!
Торрент  Добавлен [28 апр 2020, 19:54] Скачать торрент Магнет ссылка
Скачать торрент
[ Размер 18.36 КБ / Просмотров 1 ]

Статус
Проверен 
 
Размер  112.54 МБ
Приватный: Нет (DHT включён)
.torrent скачан  0
 


     Отправить личное сообщение
   
Страница 1 из 1
Показать сообщения за:  Поле сортировки  
Начать новую тему Ответить на тему


Сейчас этот форум просматривают: нет зарегистрированных пользователей и гости: 0


Вы не можете начинать темы
Вы не можете отвечать на сообщения
Вы не можете редактировать свои сообщения
Вы не можете удалять свои сообщения
Вы не можете добавлять вложения

Перейти:  
cron